Скачать через торрент музыку Forsaken: The Music бесплатно без регистрации torrent

Статистика раздачи
Размер:  402 MB   |    Зарегистрирован:  10 месяцев   |    .torrent скачан:  41 раз   |   
Раздают:  1  
   
загрузка...
 
Автор Сообщение

Galfimbul

avatar Galfimbul


Forsaken: The Music

Жанр: Soundtrack
Композитор: The Swarm
Год выпуска диска: 2000
Производитель диска: UK
Издатель (лейбл): No Bones Records
Номер по каталогу: BONES CD 02
Аудиокодек: FLAC (*.flac)
Тип рипа: tracks
Битрейт аудио: lossless
Продолжительность: 1:08:45
Источник: скачано с Apollo
Наличие сканов в содержимом раздачи: нет

Треклист:
01. Pure Bitch Power (The Swarm Remix feat. MC Burglar) [4:02]
02. Pure Bitch Power (T-Power Mix) [6:19]
03. Reactor (Russ Gabriel Mix) [5:59]
04. Gargantuan [5:18]
05. Forsaken (Pearl & Koru Mix) [7:00]
06. Flameout (Andy Hughes From The Orb Mix) [4:54]
07. Sanctuary Of Tloloc [4:57]
08. The Dead System (Force Of Angels Mix) [5:30]
09. Forsaken (Bedouin Ascent V. Pearl Mix) [5:17]
10. Condemned [4:07]
11. Flameout (Genik Mix) [3:30]
12. Gargantuan (Fluid Mix) [6:54]
13. Reactor [5:00]
Exact Audio Copy V1.0 beta 3 from 29. August 2011

EAC extraction logfile from 20. October 2012, 2:05

The Swarm / Forsaken: The Music

Used drive : HL-DT-STDVDRAM GSA-T20N Adapter: 3 ID: 0

Read mode : SecureUtilize accurate stream : YesDefeat audio cache : YesMake use of C2 pointers : No

Read offset correction : 667Overread into Lead-In and Lead-Out : NoFill up missing offset samples with silence : YesDelete leading and trailing silent blocks : NoNull samples used in CRC calculations : YesUsed interface : Native Win32 interface for Win NT & 2000Gap handling : Appended to previous track

Used output format : User Defined EncoderSelected bitrate : 128 kBit/sQuality : HighAdd ID3 tag : NoCommand line compressor : D:\iROpack\FLAC\flac.exeAdditional command line options : -8 -V -T "ARTIST=%artist%" -T "TITLE=%title%" -T "ALBUM=%albumtitle%" -T "DATE=%year%" -T "TRACKNUMBER=%tracknr%" -T "GENRE=%genre%" %source% -o %dest%

TOC of the extracted CD

Track | Start | Length | Start sector | End sector --------------------------------------------------------- 1 | 0:00.00 | 4:01.62 | 0 | 18136 2 | 4:01.62 | 6:18.45 | 18137 | 46531 3 | 10:20.32 | 5:59.13 | 46532 | 73469 4 | 16:19.45 | 5:17.52 | 73470 | 97296 5 | 21:37.22 | 6:59.63 | 97297 | 128784 6 | 28:37.10 | 4:53.72 | 128785 | 150831 7 | 33:31.07 | 4:57.10 | 150832 | 173116 8 | 38:28.17 | 5:29.65 | 173117 | 197856 9 | 43:58.07 | 5:16.58 | 197857 | 221614 10 | 49:14.65 | 4:06.42 | 221615 | 240106 11 | 53:21.32 | 3:29.68 | 240107 | 255849 12 | 56:51.25 | 6:54.05 | 255850 | 286904 13 | 63:45.30 | 4:59.45 | 286905 | 309374

Track 1

Filename E:\01. Pure Bitch Power (The Swarm Remix feat. MC Burglar)).wav

Pre-gap length 0:00:02.00

Peak level 96.1 % Extraction speed 2.4 X Track quality 100.0 % Test CRC 48E671C2 Copy CRC 48E671C2 Accurately ripped (confidence 2) [DDC590DD] (AR v2) Copy OK

Track 2

Filename E:\02. Pure Bitch Power (T-Power Mix).wav

Pre-gap length 0:00:02.43

Peak level 98.8 % Extraction speed 2.8 X Track quality 100.0 % Test CRC 8CDE862A Copy CRC 8CDE862A Accurately ripped (confidence 2) [C88668EA] (AR v2) Copy OK

Track 3

Filename E:\03. Reactor (Russ Gabriel Mix).wav

Pre-gap length 0:00:01.63

Peak level 96.4 % Extraction speed 2.8 X Track quality 99.9 % Test CRC 63BF90CE Copy CRC 63BF90CE Accurately ripped (confidence 2) [4383CFE0] (AR v2) Copy OK

Track 4

Filename E:\04. Gargantuan.wav

Pre-gap length 0:00:02.44

Peak level 98.8 % Extraction speed 3.0 X Track quality 99.9 % Test CRC 5307EA08 Copy CRC 5307EA08 Accurately ripped (confidence 2) [561BDBEE] (AR v2) Copy OK

Track 5

Filename E:\05. Forsaken (Pearl And Koru Mix).wav

Pre-gap length 0:00:02.03

Peak level 91.7 % Extraction speed 3.6 X Track quality 100.0 % Test CRC DCEA45E0 Copy CRC DCEA45E0 Accurately ripped (confidence 2) [A155C683] (AR v2) Copy OK

Track 6

Filename E:\06. Flameout (Andy Hughes From The Orb Mix).wav

Pre-gap length 0:00:01.08

Peak level 98.8 % Extraction speed 3.8 X Track quality 100.0 % Test CRC CB16B98E Copy CRC CB16B98E Accurately ripped (confidence 2) [F9E8CCDF] (AR v2) Copy OK

Track 7

Filename E:\07. Sanctuary Of Tloloc.wav

Pre-gap length 0:00:02.51

Peak level 98.8 % Extraction speed 3.5 X Track quality 99.9 % Test CRC 0409AAB3 Copy CRC 0409AAB3 Accurately ripped (confidence 2) [ACFE541F] (AR v2) Copy OK

Track 8

Filename E:\08. The Dead System (Force Of Angels Mix).wav

Pre-gap length 0:00:02.38

Peak level 96.3 % Extraction speed 4.1 X Track quality 100.0 % Test CRC 72B0A295 Copy CRC 72B0A295 Accurately ripped (confidence 2) [216EE892] (AR v2) Copy OK

Track 9

Filename E:\09. Forsaken (Bedouin Ascent V. Pearl Mix).wav

Pre-gap length 0:00:01.71

Peak level 98.8 % Extraction speed 4.3 X Track quality 100.0 % Test CRC FD808220 Copy CRC FD808220 Accurately ripped (confidence 2) [C590870A] (AR v2) Copy OK

Track 10

Filename E:\10. Condemned.wav

Pre-gap length 0:00:02.41

Peak level 98.8 % Extraction speed 4.2 X Track quality 100.0 % Test CRC 947E6E23 Copy CRC 947E6E23 Accurately ripped (confidence 2) [DA88D748] (AR v2) Copy OK

Track 11

Filename E:\11. Flameout (Genik Mix).wav

Pre-gap length 0:00:01.66

Peak level 98.8 % Extraction speed 4.3 X Track quality 100.0 % Test CRC 7BFE94A0 Copy CRC 7BFE94A0 Accurately ripped (confidence 2) [009AACCA] (AR v2) Copy OK

Track 12

Filename E:\12. Gargantuan (Fluid Mix).wav

Pre-gap length 0:00:01.49

Peak level 89.1 % Extraction speed 4.8 X Track quality 100.0 % Test CRC EA4E5789 Copy CRC EA4E5789 Accurately ripped (confidence 2) [78B8E198] (AR v2) Copy OK

Track 13

Filename E:\13. Reactor.wav

Pre-gap length 0:00:02.39

Peak level 98.8 % Extraction speed 4.8 X Track quality 100.0 % Test CRC 8F752917 Copy CRC 8F752917 Accurately ripped (confidence 2) [BD4CBAA3] (AR v2) Copy OK

All tracks accurately ripped

No errors occurred

End of status report

---- CUETools DB Plugin V2.1.3

[CTDB TOCID: QuQrySjRlc6.712Piy8Iq_tgrv8-] found, Submit result: QuQrySjRlc6.712Piy8Iq_tgrv8- has been confirmed[af2ae324] (2/2) Accurately ripped

==== Log checksum E427DB28E3666CF9E2A4BC12E22A304ABA736057AE23452B1303C55B0CC2FA20 ====
В связи с выходом Forsaken Remastered, решил выложить этот замечательный саундтрек.

Об издании: официальные ремиксы на оригинальный саундтрек от тех же композиторов.

mp3, 320kbps

Трекер:  [ 30-Июл-2018 18:36 ]

  

Скачать .torrent

Размер .torrent файла 17 KB


Размер: 402 MB
Хэш (hash) релиза: 54114ff8b0f7a3838568cdf99eba8915824b6a25

Еще никто не оставлял запись к записи скачать торрент Forsaken: The Music . Будь первым!

!Обратная связь