Скачать через торрент музыку Forsaken Soundtrack бесплатно без регистрации torrent

Статистика раздачи
Размер:  257 MB   |    Зарегистрирован:  10 месяцев   |    .torrent скачан:  45 раз   |   
Раздают:  2  
   
загрузка...
 
Автор Сообщение

Galfimbul

avatar Galfimbul


Forsaken Soundtrack

Жанр: Score
Композитор: The Swarm
Год выпуска диска: 1998
Производитель диска: US
Издатель (лейбл): Acclaim Entertainment
Аудиокодек: FLAC (*.flac)
Тип рипа: tracks
Битрейт аудио: lossless
Продолжительность: 42:26.173
Источник: собственный рип
Наличие сканов в содержимом раздачи: нет

Треклист:
01. Трек с данными
02. Forsaken [5:19]
03. Gargantuan [5:20]
04. Sanctuary Of Tloloc [4:59]
05. Untitled [5:12]
06. Reactor [5:03]
07. Pure Bitch Power [4:04]
08. Condemned [4:10]
09. Flameout [3:57]
10. The Dead System [4:23]
Exact Audio Copy V1.3 from 2. September 2016

Отчёт EAC об извлечении, выполненном 30. июля 2018, 13:30

The Swarm / Forsaken Soundtrack

Дисковод: TSSTcorpDVD+-RW SU-208GB Adapter: 1 ID: 0

Режим чтения : ДостоверностьИспользование точного потока : ДаОтключение кэша аудио : ДаИспользование указателей C2 : Нет

Комбинированное смещение чтения/записи : 0Способность читать области Lead-in и Lead-out : НетЗаполнение пропущенных сэмплов тишиной : ДаУдаление блоков с тишиной в начале и конце : НетПри вычислениях CRC использовались нулевые сэмплы : ДаИнтерфейс : Встроенный Win32-интерфейс для Win NT/2000Обработка зазоров : Добавлено к предыдущему треку

Выходной формат : Пользовательский кодировщикВыбранный битрейт : 768 kBit/sКачество : ВысокийДобавление ID3-тега : НетУтилита сжатия : D:\Programs\Exact Audio Copy\FLAC\FLAC.EXEДополнительные параметры : -6 -V -T "ARTIST=%artist%" -T "TITLE=%title%" -T "ALBUM=%albumtitle%" -T "DATE=%year%" -T "TRACKNUMBER=%tracknr%" -T "GENRE=%genre%" -T "COMMENT=%comment%" -T "BAND=%albuminterpret%" -T "ALBUMARTIST=%albuminterpret%" -T "COMPOSER=%composer%" %haslyrics%--tag-from-file=LYRICS="%lyricsfile%"%haslyrics% -T "DISCNUMBER=%cdnumber%" -T "TOTALDISCS=%totalcds%" -T "TOTALTRACKS=%numtracks%" %hascover%--picture="%coverfile%"%hascover% %source% -o %dest%

TOC извлечённого CD

Трек | Старт | Длительность | Начальный сектор | Конечный сектор --------------------------------------------------------------------- 1 | 0:00.00 | 27:52.30 | 0 | 125429 2 | 27:52.30 | 5:19.17 | 125430 | 149371 3 | 33:11.47 | 5:19.52 | 149372 | 173348 4 | 38:31.24 | 4:58.51 | 173349 | 195749 5 | 43:30.00 | 5:11.45 | 195750 | 219119 6 | 48:41.45 | 5:03.32 | 219120 | 241876 7 | 53:45.02 | 4:03.49 | 241877 | 260150 8 | 57:48.51 | 4:10.01 | 260151 | 278901 9 | 61:58.52 | 3:56.54 | 278902 | 296655 10 | 65:55.31 | 4:23.12 | 296656 | 316392

Трек 2

Имя файла D:\Forsaken Soundtrack (1998)\02. Forsaken.wav

Пиковый уровень 97.9 % Скорость извлечения 58.1 X Качество трека 100.0 % CRC теста EB2AFEF4 CRC копии EB2AFEF4 Копирование... OK

Трек 3

Имя файла D:\Forsaken Soundtrack (1998)\03. Gargantuan.wav

Пиковый уровень 97.4 % Скорость извлечения 54.5 X Качество трека 99.9 % CRC теста 5C79F756 CRC копии 5C79F756 Копирование... OK

Трек 4

Имя файла D:\Forsaken Soundtrack (1998)\04. Sanctuary Of Tloloc.wav

Пиковый уровень 97.3 % Скорость извлечения 54.9 X Качество трека 100.0 % CRC теста A31EEDD4 CRC копии A31EEDD4 Копирование... OK

Трек 5

Имя файла D:\Forsaken Soundtrack (1998)\05. Untitled.wav

Пиковый уровень 98.0 % Скорость извлечения 57.4 X Качество трека 100.0 % CRC теста 3AA99D11 CRC копии 3AA99D11 Копирование... OK

Трек 6

Имя файла D:\Forsaken Soundtrack (1998)\06. Reactor.wav

Пиковый уровень 82.3 % Скорость извлечения 58.5 X Качество трека 99.9 % CRC теста 4B88069C CRC копии 4B88069C Копирование... OK

Трек 7

Имя файла D:\Forsaken Soundtrack (1998)\07. Pure Bitch Power.wav

Пиковый уровень 91.3 % Скорость извлечения 55.9 X Качество трека 100.0 % CRC теста 1B483FC0 CRC копии 1B483FC0 Копирование... OK

Трек 8

Имя файла D:\Forsaken Soundtrack (1998)\08. Condemned.wav

Пиковый уровень 91.8 % Скорость извлечения 52.5 X Качество трека 99.9 % CRC теста DD103462 CRC копии DD103462 Копирование... OK

Трек 9

Имя файла D:\Forsaken Soundtrack (1998)\09. Flameout.wav

Пиковый уровень 86.6 % Скорость извлечения 56.8 X Качество трека 99.9 % CRC теста DFAE165F CRC копии DFAE165F Копирование... OK

Трек 10

Имя файла D:\Forsaken Soundtrack (1998)\10. The Dead System.wav

Пиковый уровень 90.7 % Скорость извлечения 57.8 X Качество трека 100.0 % CRC теста 21ECF866 CRC копии 21ECF866 Копирование... OK

Ошибок не произошло

Конец отчёта
В связи с выходом Forsaken Remastered, решил выложить этот замечательный саундтрек.

Трекер:  [ 30-Июл-2018 18:36 ]

  

Скачать .torrent

Размер .torrent файла 11 KB


Размер: 257 MB
Хэш (hash) релиза: 9805de19c7a3a502415aff6b0e2e5bbc1de3db0a

Торренты, похожие на Forsaken Soundtrack скачать торрент

Форум Название Автор Размер S L Добавлен
Саундтреки к играм (lossless) ·%· (Soundtrack) Forsaken: The Music (The Swarm) - 2000, FLAC (tracks), lossless Galfimbul 421455104402 MB 0 0 1532965032

18:37

30-Июл-18

Еще никто не оставлял запись к записи скачать торрент Forsaken Soundtrack . Будь первым!

!Обратная связь