Скачать через торрент Железнодорожный переезд Fumikiri Jikan бесплатно Аниме Все серии на русском torrent

Статистика раздачи
Размер:  1.06 GB   |    Зарегистрирован:  4 месяца 13 дней   |    .torrent скачан:  67 раз   |   
Раздают:  1  
   
загрузка...
 
Автор Сообщение

Galfimbul

avatar Galfimbul


Железнодорожный переезд / Fumikiri Jikan

Страна: Япония
Год выпуска: 2018
Жанр: комедия, повседневность
Тип: TV
Продолжительность: 12 эп, по 03:30 мин.
Режиссер: Судзуки Ёсио
Студия: Ekachi Epilka

Описание: Вся наша жизнь состоит из сплошной суеты. Люди всё время куда-то спешат, торопятся, бегут… В головокружительной будничной суете нам порой некогда даже перевести дух. Но во всём должен существовать баланс. И если мы не можем сами вовремя остановиться, то город сделает это за нас. На то существуют светофоры, на которых можно затормозить и провести минутку в простом ожидании. А есть и железнодорожные переезды, где придётся постоять подольше, вглядываясь вдаль и выискивая силуэт приближающегося поезда, а также посчитать, сколько же у него вагонов. Какие мысли приходят им в голову, когда барьер внезапно блокирует их дальше? Для них каждый день - это новая история, звуки которой смешиваются с шумом поезда, проходящего вдоль рельсов.

Данная история коротких рассказов повествует нам, о повседневной жизни и разговорах молодых, но при этом разных людей на различные темы, ожидающих на железнодорожных перекрёстках.

Качество: HDTVRip
Тип релиза: Без хардсаба
Формат видео: MKV
Наличие линковки: Нет
Видео: MPEG4 Video (H264), 1920x1080, 3201 kbps, 23.976 fps, 8 bit
Аудио: AAC, 128 kbps, 44100Hz, 2 ch Язык Японский
Субтитры: ass, внешние, русский; перевод: YakuSub Studio
GeneralUnique ID : 121838204085230821120336565445344259718 (0x5BA92F3F715E078CBEAE21F5616A6E86)Complete name : J:\Anime\Fumikiri Jikan [1080p]\Fumikiri Jikan - 01.mkvFormat : MatroskaFormat version : Version 4 / Version 2File size : 80.2 MiBDuration : 3mn 30sOverall bit rate : 3 201 KbpsEncoded date : UTC 2018-07-30 04:31:10Writing application : mkvmerge v25.0.0 ('Prog Noir') 64-bitWriting library : libebml v1.3.6 + libmatroska v1.4.9Attachments : Lato Bold

VideoID : 1Format : AVCFormat/Info : Advanced Video CodecFormat profile : High@L4Format settings : CABAC / 4 Ref FramesFormat settings, CABAC : YesFormat settings, ReFrames : 4 framesCodec ID : V_MPEG4/ISO/AVCDuration : 3mn 29sBit rate : 3 072 KbpsWidth : 1 920 pixelsHeight : 1 080 pixelsDisplay aspect ratio : 16:9Frame rate mode : ConstantFrame rate : 23.976 (23976/1000) fpsColor space : YUVChroma subsampling : 4:2:0Bit depth : 8 bitsScan type : ProgressiveBits/(Pixel*Frame) : 0.062Stream size : 76.8 MiB (96%)Writing library : x264 core 120 r2120 0c7dab9Encoding settings : cabac=1 / ref=4 / deblock=1:1:1 / analyse=0x3:0x113 / me=umh / subme=8 / psy=1 / psy_rd=0.40:0.00 / mixed_ref=1 / me_range=16 / chroma_me=1 / trellis=1 / 8x8dct=1 / cqm=0 / deadzone=21,11 / fast_pskip=1 / chroma_qp_offset=-2 / threads=8 / sliced_threads=0 / nr=0 / decimate=1 / interlaced=0 / bluray_compat=0 / constrained_intra=0 / bframes=3 / b_pyramid=2 / b_adapt=2 / b_bias=0 / direct=3 / weightb=1 / open_gop=0 / weightp=2 / keyint=250 / keyint_min=23 / scenecut=40 / intra_refresh=0 / rc_lookahead=50 / rc=2pass / mbtree=1 / bitrate=3072 / ratetol=1.0 / qcomp=0.60 / qpmin=0 / qpmax=69 / qpstep=4 / cplxblur=20.0 / qblur=0.5 / vbv_maxrate=6144 / vbv_bufsize=15360 / nal_hrd=none / ip_ratio=1.40 / aq=1:0.60Default : YesForced : No

AudioID : 2Format : AACFormat/Info : Advanced Audio CodecFormat profile : LCCodec ID : A_AAC-2Duration : 3mn 30sBit rate : 128 KbpsChannel(s) : 2 channelsChannel positions : Front: L RSampling rate : 44.1 KHzFrame rate : 43.066 fps (1024 SPF)Compression mode : LossyStream size : 3.21 MiB (4%)Default : YesForced : No
01 - Их юность, часть 1
02 - Сексуальная Маджима-сан, часть 1
03 - Вместе с учителем
04 - SNS-родня, часть 1
05 - Готические испытания
06 - Господин Хассаку и Я
07 - Железнодорожный поэт
08 - SNS-родня 2
09 - Сердце городской электрички, часть 1
10 - Сердце городской электрички, часть 2
11 - Сексуальная Маджима-сан, часть 2
12 - Их юность, часть 2


Трекер:  [ 30-Июл-2018 21:01 ]

  

Скачать .torrent

Размер .torrent файла 12 KB


Размер: 1.06 GB
Хэш (hash) релиза: 7c5951053f6283cd9248426025bbe31c37c40ab2
Подписка на обновления:

Еще никто не оставлял запись к записи скачать торрент Железнодорожный переезд Fumikiri Jikan . Будь первым!

!Обратная связь