Скачать через торрент музыку Увалень Томми Tommy Boy бесплатно без регистрации torrent

Статистика раздачи
Размер:  317 MB   |    Зарегистрирован:  5 месяцев 19 дней   |    .torrent скачан:  27 раз   |   
Раздают:  1  
   
загрузка...
 
Автор Сообщение

Galfimbul

avatar Galfimbul


Увалень Томми / Tommy Boy

Название альбома: Tommy Boy (The Movie) (Music From The Paramount Motion Picture)
Жанр: Soundtrack
Год выпуска диска: 1995
Год выпуска фильма: 1995
Страна-производитель диска: США
Издатель (лейбл): Warner Bros. Records
Номер по каталогу: 9362-45904-2
Аудиокодек: FLAC (*.flac)
Тип рипа: tracks+.cue
Битрейт аудио: lossless
Продолжительность: 00:47:11
Источник: bluesman
Наличие сканов в содержимом раздачи: нет

Треклист:

01. I Love It Loud (Injected mix) (Phunk Junkeez) [03:05]
02. Graduation (Chris Farley and David Spade) [00:09]
03. Silver Naked Ladies (Paul Westerberg) [04:37]
04. Lalaluukee (Chris Farley and David Spade) [00:18]
05. Call On Me (Primal Scream) [03:46]
06. How Do I Look? (Chris Farley and David Spade) [00:08]
07. Wait for the Blackout (Goo Goo Dolls) [03:38]
08. Bong Resin (Chris Farley and David Spade) [00:08]
09. My Hallucination (Shaw–Blades) [04:43]
10. Air (Seven Day Diary) [03:14]
11. Fat Guy in a Little Coat (Chris Farley and David Spade) [00:17]
12. Superstar (The Carpenters) [03:47]
13. Jerk Motel (Chris Farley and David Spade) [00:20]
14. Is Chicago, Is Not Chicago (Soul Coughing) [03:48]
15. My Pretty Little Pet (Chris Farley and David Spade) [00:44]
16. Come On Eileen (Dexys Midnight Runners) [04:07]
17. It's the End of the World as We Know It (and I Feel Fine) (R.E.M.) [04:04]
18. Eres Tu (Mocedades) [03:32]
19. Housekeeping (Chris Farley and David Spade) [00:28]
20. My Lucky Day (Smoking Popes) [02:06]
Exact Audio Copy V1.1 from 23. June 2015

EAC extraction logfile from 1. October 2016, 21:38

Various Artists / Tommy Boy (The Movie)

Used drive : HL-DT-STBD-RE BH16NS40 Adapter: 1 ID: 0

Read mode : SecureUtilize accurate stream : YesDefeat audio cache : YesMake use of C2 pointers : No

Read offset correction : 6Overread into Lead-In and Lead-Out : NoFill up missing offset samples with silence : YesDelete leading and trailing silent blocks : NoNull samples used in CRC calculations : YesUsed interface : Native Win32 interface for Win NT & 2000Gap handling : Appended to previous track

Used output format : User Defined EncoderSelected bitrate : 896 kBit/sQuality : HighAdd ID3 tag : NoCommand line compressor : C:\Program Files (x86)\Exact Audio Copy\Flac\flac.exeAdditional command line options : -8 -V -T "ARTIST=%artist%" -T "TITLE=%title%" -T "ALBUM=%albumtitle%" -T "COMPOSER=%composer%" -T "DATE=%year%" -T "TRACKNUMBER=%tracknr%" -T "TOTALTRACKS=%numtracks%" -T "TRACKTOTAL=%numtracks%" -T "GENRE=%genre%" -T "ALBUMARTIST=%albumartist%" -T "ALBUM ARTIST=%albumartist%" -T "DISCNUMBER=%cdnumber%" -T "DISCTOTAL=%totalcds%" -T "TOTALDISCS=%totalcds%" -T "COMMENT=EAC Secure Mode, Test & Copy, AccurateRip, FLAC -8" %source%

TOC of the extracted CD

Track | Start | Length | Start sector | End sector --------------------------------------------------------- 1 | 0:00.00 | 3:05.37 | 0 | 13911 2 | 3:05.37 | 0:09.63 | 13912 | 14649 3 | 3:15.25 | 4:37.45 | 14650 | 35469 4 | 7:52.70 | 0:18.25 | 35470 | 36844 5 | 8:11.20 | 3:46.07 | 36845 | 53801 6 | 11:57.27 | 0:08.45 | 53802 | 54446 7 | 12:05.72 | 3:38.53 | 54447 | 70849 8 | 15:44.50 | 0:08.57 | 70850 | 71506 9 | 15:53.32 | 4:43.48 | 71507 | 92779 10 | 20:37.05 | 3:14.60 | 92780 | 107389 11 | 23:51.65 | 0:17.32 | 107390 | 108696 12 | 24:09.22 | 3:47.38 | 108697 | 125759 13 | 27:56.60 | 0:20.62 | 125760 | 127321 14 | 28:17.47 | 3:48.30 | 127322 | 144451 15 | 32:06.02 | 0:44.70 | 144452 | 147821 16 | 32:50.72 | 4:07.60 | 147822 | 166406 17 | 36:58.57 | 4:04.60 | 166407 | 184766 18 | 41:03.42 | 3:32.30 | 184767 | 200696 19 | 44:35.72 | 0:29.00 | 200697 | 202871 20 | 45:04.72 | 2:06.18 | 202872 | 212339

Track 1

Filename F:\Music\CD Rips\VA - Tommy Boy [The Movie] (1995) [FLAC] {XE Warner Bros. 9362-45904-2}\01 - Phunk Junkeez - I Love It Loud (Injected mix).wav

Pre-gap length 0:00:02.00

Peak level 93.5 % Extraction speed 3.1 X Track quality 100.0 % Test CRC C13833F6 Copy CRC C13833F6 Accurately ripped (confidence 3) [43DA420F] (AR v1) Copy OK

Track 2

Filename F:\Music\CD Rips\VA - Tommy Boy [The Movie] (1995) [FLAC] {XE Warner Bros. 9362-45904-2}\02 - Chris Farley and David Spade - Graduation.wav

Pre-gap length 0:00:00.37

Peak level 47.2 % Extraction speed 0.6 X Track quality 100.0 % Test CRC 049A15C7 Copy CRC 049A15C7 Accurately ripped (confidence 3) [0AB97D15] (AR v1) Copy OK

Track 3

Filename F:\Music\CD Rips\VA - Tommy Boy [The Movie] (1995) [FLAC] {XE Warner Bros. 9362-45904-2}\03 - Paul Westerberg - Silver Naked Ladies.wav

Peak level 98.7 % Extraction speed 2.1 X Track quality 100.0 % Test CRC A2FF3CEA Copy CRC A2FF3CEA Accurately ripped (confidence 3) [5D6A8F94] (AR v1) Copy OK

Track 4

Filename F:\Music\CD Rips\VA - Tommy Boy [The Movie] (1995) [FLAC] {XE Warner Bros. 9362-45904-2}\04 - Chris Farley and David Spade - Lalaluukee.wav

Pre-gap length 0:00:01.48

Peak level 40.0 % Extraction speed 0.4 X Track quality 100.0 % Test CRC 262C83F1 Copy CRC 262C83F1 Accurately ripped (confidence 3) [F531B759] (AR v1) Copy OK

Track 5

Filename F:\Music\CD Rips\VA - Tommy Boy [The Movie] (1995) [FLAC] {XE Warner Bros. 9362-45904-2}\05 - Primal Scream - Call On Me.wav

Peak level 92.5 % Extraction speed 1.2 X Track quality 99.9 % Test CRC E2CA6190 Copy CRC E2CA6190 Accurately ripped (confidence 3) [ACB108F2] (AR v1) Copy OK

Track 6

Filename F:\Music\CD Rips\VA - Tommy Boy [The Movie] (1995) [FLAC] {XE Warner Bros. 9362-45904-2}\06 - Chris Farley and David Spade - How Do I Look.wav

Pre-gap length 0:00:00.37

Peak level 35.9 % Extraction speed 0.1 X Track quality 98.7 % Test CRC 2BCAE286 Copy CRC 2BCAE286 Accurately ripped (confidence 3) [4E318B21] (AR v1) Copy OK

Track 7

Filename F:\Music\CD Rips\VA - Tommy Boy [The Movie] (1995) [FLAC] {XE Warner Bros. 9362-45904-2}\07 - Goo Goo Dolls - Wait for the Blackout.wav

Peak level 98.9 % Extraction speed 1.3 X Track quality 100.0 % Test CRC A961F37F Copy CRC A961F37F Accurately ripped (confidence 3) [636BA2CA] (AR v1) Copy OK

Track 8

Filename F:\Music\CD Rips\VA - Tommy Boy [The Movie] (1995) [FLAC] {XE Warner Bros. 9362-45904-2}\08 - Chris Farley and David Spade - Bong Resin.wav

Pre-gap length 0:00:00.48

Peak level 40.5 % Extraction speed 0.3 X Track quality 100.0 % Test CRC CEE1D7D2 Copy CRC CEE1D7D2 Accurately ripped (confidence 3) [67E3F7F5] (AR v1) Copy OK

Track 9

Filename F:\Music\CD Rips\VA - Tommy Boy [The Movie] (1995) [FLAC] {XE Warner Bros. 9362-45904-2}\09 - Shaw–Blades - My Hallucination.wav

Peak level 93.2 % Extraction speed 1.5 X Track quality 100.0 % Test CRC ED720012 Copy CRC ED720012 Accurately ripped (confidence 3) [DC0D6D10] (AR v1) Copy OK

Track 10

Filename F:\Music\CD Rips\VA - Tommy Boy [The Movie] (1995) [FLAC] {XE Warner Bros. 9362-45904-2}\10 - Seven Day Diary - Air.wav

Pre-gap length 0:00:00.48

Peak level 86.7 % Extraction speed 1.5 X Track quality 100.0 % Test CRC E447FC39 Copy CRC E447FC39 Accurately ripped (confidence 3) [ADFAC380] (AR v1) Copy OK

Track 11

Filename F:\Music\CD Rips\VA - Tommy Boy [The Movie] (1995) [FLAC] {XE Warner Bros. 9362-45904-2}\11 - Chris Farley and David Spade - Fat Guy in a Little Coat.wav

Peak level 34.8 % Extraction speed 0.5 X Track quality 100.0 % Test CRC 696FD039 Copy CRC 696FD039 Accurately ripped (confidence 3) [C1511744] (AR v1) Copy OK

Track 12

Filename F:\Music\CD Rips\VA - Tommy Boy [The Movie] (1995) [FLAC] {XE Warner Bros. 9362-45904-2}\12 - The Carpenters - Superstar.wav

Pre-gap length 0:00:00.10

Peak level 89.7 % Extraction speed 1.6 X Track quality 100.0 % Test CRC 208348E4 Copy CRC 208348E4 Accurately ripped (confidence 3) [8C0EE3F6] (AR v1) Copy OK

Track 13

Filename F:\Music\CD Rips\VA - Tommy Boy [The Movie] (1995) [FLAC] {XE Warner Bros. 9362-45904-2}\13 - Chris Farley and David Spade - Jerk Motel.wav

Pre-gap length 0:00:01.50

Peak level 26.8 % Extraction speed 0.6 X Track quality 100.0 % Test CRC AF36E769 Copy CRC AF36E769 Accurately ripped (confidence 3) [681FBECE] (AR v1) Copy OK

Track 14

Filename F:\Music\CD Rips\VA - Tommy Boy [The Movie] (1995) [FLAC] {XE Warner Bros. 9362-45904-2}\14 - Soul Coughing - Is Chicago, Is Not Chicago.wav

Peak level 87.6 % Extraction speed 1.4 X Track quality 99.9 % Test CRC 27F81D40 Copy CRC 27F81D40 Accurately ripped (confidence 3) [22AB6263] (AR v1) Copy OK

Track 15

Filename F:\Music\CD Rips\VA - Tommy Boy [The Movie] (1995) [FLAC] {XE Warner Bros. 9362-45904-2}\15 - Chris Farley and David Spade - My Pretty Little Pet.wav

Pre-gap length 0:00:00.62

Peak level 41.6 % Extraction speed 1.1 X Track quality 100.0 % Test CRC BAAE3A87 Copy CRC BAAE3A87 Accurately ripped (confidence 3) [8E093419] (AR v1) Copy OK

Track 16

Filename F:\Music\CD Rips\VA - Tommy Boy [The Movie] (1995) [FLAC] {XE Warner Bros. 9362-45904-2}\16 - Dexys Midnight Runners - Come On Eileen.wav

Peak level 71.2 % Extraction speed 1.8 X Track quality 100.0 % Test CRC FE4AA20E Copy CRC FE4AA20E Accurately ripped (confidence 3) [5229E080] (AR v1) Copy OK

Track 17

Filename F:\Music\CD Rips\VA - Tommy Boy [The Movie] (1995) [FLAC] {XE Warner Bros. 9362-45904-2}\17 - R.E.M. - It's the End of the World as We Know It (and I Feel Fine).wav

Pre-gap length 0:00:01.12

Peak level 84.7 % Extraction speed 1.8 X Track quality 100.0 % Test CRC E8DFAB43 Copy CRC E8DFAB43 Accurately ripped (confidence 3) [252A3F3D] (AR v1) Copy OK

Track 18

Filename F:\Music\CD Rips\VA - Tommy Boy [The Movie] (1995) [FLAC] {XE Warner Bros. 9362-45904-2}\18 - Mocedades - Eres Tu.wav

Pre-gap length 0:00:00.22

Peak level 93.0 % Extraction speed 1.9 X Track quality 100.0 % Test CRC 091F27F5 Copy CRC 091F27F5 Accurately ripped (confidence 3) [B5C9548B] (AR v1) Copy OK

Track 19

Filename F:\Music\CD Rips\VA - Tommy Boy [The Movie] (1995) [FLAC] {XE Warner Bros. 9362-45904-2}\19 - Chris Farley and David Spade - Housekeeping.wav

Pre-gap length 0:00:00.47

Peak level 37.7 % Extraction speed 0.9 X Track quality 100.0 % Test CRC 3A354742 Copy CRC 3A354742 Accurately ripped (confidence 3) [15621595] (AR v1) Copy OK

Track 20

Filename F:\Music\CD Rips\VA - Tommy Boy [The Movie] (1995) [FLAC] {XE Warner Bros. 9362-45904-2}\20 - Smoking Popes - My Lucky Day.wav

Peak level 89.5 % Extraction speed 1.7 X Track quality 100.0 % Test CRC 5F72754F Copy CRC 5F72754F Accurately ripped (confidence 3) [6C83E50D] (AR v1) Copy OK

All tracks accurately ripped

No errors occurred

End of status report

---- CUETools DB Plugin V2.1.6

[CTDB TOCID: 57blViDd1m_XDM83I4iah8gxZYk-] foundSubmit result: 57blViDd1m_XDM83I4iah8gxZYk- has been confirmedTrack | CTDB Status 1 | (2/2) Accurately ripped 2 | (2/2) Accurately ripped 3 | (2/2) Accurately ripped 4 | (2/2) Accurately ripped 5 | (2/2) Accurately ripped 6 | (2/2) Accurately ripped 7 | (2/2) Accurately ripped 8 | (2/2) Accurately ripped 9 | (2/2) Accurately ripped 10 | (2/2) Accurately ripped 11 | (2/2) Accurately ripped 12 | (2/2) Accurately ripped 13 | (2/2) Accurately ripped 14 | (2/2) Accurately ripped 15 | (2/2) Accurately ripped 16 | (2/2) Accurately ripped 17 | (2/2) Accurately ripped 18 | (2/2) Accurately ripped 19 | (2/2) Accurately ripped 20 | (2/2) Accurately ripped

==== Log checksum FE13093D9E2D554E3095C35795A27D8380F4AAC9F15BB757EA52411EBE656FF0 ====
REM GENRE SoundtrackREM DATE 1995REM DISCID 410B0F14REM COMMENT "ExactAudioCopy v1.1"PERFORMER "Various Artists"TITLE "Tommy Boy (The Movie)"FILE "01 - Phunk Junkeez - I Love It Loud (Injected mix).wav" WAVE TRACK 01 AUDIO TITLE "I Love It Loud (Injected mix)" PERFORMER "Phunk Junkeez" INDEX 01 00:00:00 TRACK 02 AUDIO TITLE "Graduation" PERFORMER "Chris Farley and David Spade" INDEX 00 03:05:00FILE "02 - Chris Farley and David Spade - Graduation.wav" WAVE INDEX 01 00:00:00FILE "03 - Paul Westerberg - Silver Naked Ladies.wav" WAVE TRACK 03 AUDIO TITLE "Silver Naked Ladies" PERFORMER "Paul Westerberg" INDEX 01 00:00:00 TRACK 04 AUDIO TITLE "Lalaluukee" PERFORMER "Chris Farley and David Spade" INDEX 00 04:35:72FILE "04 - Chris Farley and David Spade - Lalaluukee.wav" WAVE INDEX 01 00:00:00FILE "05 - Primal Scream - Call On Me.wav" WAVE TRACK 05 AUDIO TITLE "Call On Me" PERFORMER "Primal Scream" INDEX 01 00:00:00 TRACK 06 AUDIO TITLE "How Do I Look?" PERFORMER "Chris Farley and David Spade" INDEX 00 03:45:45FILE "06 - Chris Farley and David Spade - How Do I Look.wav" WAVE INDEX 01 00:00:00FILE "07 - Goo Goo Dolls - Wait for the Blackout.wav" WAVE TRACK 07 AUDIO TITLE "Wait for the Blackout" PERFORMER "Goo Goo Dolls" INDEX 01 00:00:00 TRACK 08 AUDIO TITLE "Bong Resin" PERFORMER "Chris Farley and David Spade" INDEX 00 03:38:05FILE "08 - Chris Farley and David Spade - Bong Resin.wav" WAVE INDEX 01 00:00:00FILE "09 - Shaw–Blades - My Hallucination.wav" WAVE TRACK 09 AUDIO TITLE "My Hallucination" PERFORMER "Shaw–Blades" INDEX 01 00:00:00 TRACK 10 AUDIO TITLE "Air" PERFORMER "Seven Day Diary" INDEX 00 04:43:00FILE "10 - Seven Day Diary - Air.wav" WAVE INDEX 01 00:00:00FILE "11 - Chris Farley and David Spade - Fat Guy in a Little Coat.wav" WAVE TRACK 11 AUDIO TITLE "Fat Guy in a Little Coat" PERFORMER "Chris Farley and David Spade" INDEX 01 00:00:00 TRACK 12 AUDIO TITLE "Superstar" PERFORMER "The Carpenters" INDEX 00 00:17:22FILE "12 - The Carpenters - Superstar.wav" WAVE INDEX 01 00:00:00 TRACK 13 AUDIO TITLE "Jerk Motel" PERFORMER "Chris Farley and David Spade" INDEX 00 03:45:63FILE "13 - Chris Farley and David Spade - Jerk Motel.wav" WAVE INDEX 01 00:00:00FILE "14 - Soul Coughing - Is Chicago, Is Not Chicago.wav" WAVE TRACK 14 AUDIO TITLE "Is Chicago, Is Not Chicago" PERFORMER "Soul Coughing" INDEX 01 00:00:00 TRACK 15 AUDIO TITLE "My Pretty Little Pet" PERFORMER "Chris Farley and David Spade" INDEX 00 03:47:43FILE "15 - Chris Farley and David Spade - My Pretty Little Pet.wav" WAVE INDEX 01 00:00:00FILE "16 - Dexys Midnight Runners - Come On Eileen.wav" WAVE TRACK 16 AUDIO TITLE "Come On Eileen" PERFORMER "Dexys Midnight Runners" INDEX 01 00:00:00 TRACK 17 AUDIO TITLE "It's the End of the World as We Know It (and I Feel Fine)" PERFORMER "R.E.M." INDEX 00 04:06:48FILE "17 - R.E.M. - It's the End of the World as We Know It (and I Feel Fine).wav" WAVE INDEX 01 00:00:00 TRACK 18 AUDIO TITLE "Eres Tu" PERFORMER "Mocedades" INDEX 00 04:04:38FILE "18 - Mocedades - Eres Tu.wav" WAVE INDEX 01 00:00:00 TRACK 19 AUDIO TITLE "Housekeeping" PERFORMER "Chris Farley and David Spade" INDEX 00 03:31:58FILE "19 - Chris Farley and David Spade - Housekeeping.wav" WAVE INDEX 01 00:00:00FILE "20 - Smoking Popes - My Lucky Day.wav" WAVE TRACK 20 AUDIO TITLE "My Lucky Day" PERFORMER "Smoking Popes" INDEX 01 00:00:00
1. I Love It Loud (Injected mix) - Phunk Junkeez 3:05
<div style="margin-left: 2em" class="post-ul">cover recording of: I Love It Loud
writer: Gene Simmons (KISS bassist) and Vinnie Vincent
publisher: Hori Productions America Inc., KISS (publisher for the rock band KISS, formerly KISS Songs Inc.), Riho Music Inc., Streetbeat Music and 大洋音楽</div>
2. Graduation - Chris Farley feat. David Spade 0:10
<div style="margin-left: 2em" class="post-ul">performer: David Spade</div>
3. Silver Naked Ladies - Paul Westerberg 4:38
4. Lalaluukee - Chris Farley feat. David Spade 0:18
<div style="margin-left: 2em" class="post-ul">performer: David Spade</div>
5. Call On Me - Primal Scream 3:46
6. How Do I Look? - Chris Farley feat. David Spade 0:09
<div style="margin-left: 2em" class="post-ul">performer: David Spade</div>
7. Wait for the Blackout - Goo Goo Dolls 3:39
<div style="margin-left: 2em" class="post-ul">cover recording of: Wait for the Blackout</div>
8. Bong Resin - Chris Farley feat. David Spade 0:09
<div style="margin-left: 2em" class="post-ul">performer: David Spade</div>
9. My Hallucination - Shaw–Blades 4:44
10. Air - Seven Day Diary 3:15
11. Fat Guy in a Little Coat - Chris Farley feat. David Spade 0:17
<div style="margin-left: 2em" class="post-ul">performer: David Spade</div>
12. Superstar - The Carpenters 3:47
<div style="margin-left: 2em" class="post-ul">producer:Jack Daugherty
recording of: Superstar
writer: Bonnie Bramlett and Leon Russell
publisher: Rondor Music (London) Ltd.
referred to in medleys: Carpenters Medley (single mix)
referred to in medleys: Opening Medley (Carpenters 1972)</div>
13. Jerk Motel - Chris Farley feat. David Spade 0:21
<div style="margin-left: 2em" class="post-ul">performer: David Spade</div>
14. Is Chicago, Is Not Chicago - Soul Coughing 3:49
<div style="margin-left: 2em" class="post-ul">recording of: Is Chicago, Is Not Chicago
writer: Soul Coughing</div>
15. My Pretty Little Pet - Chris Farley feat. David Spade 0:45
<div style="margin-left: 2em" class="post-ul">performer: David Spade</div>
16. Come On Eileen - Dexys Midnight Runners 4:08
<div style="margin-left: 2em" class="post-ul">recording of: Come On Eileen
writer:Kevin Adams, James Mitchell Paterson and Kevin Rowland
publisher: EMI Music Publishing Ltd.
later translated versions: Vamos Eileen</div>
17. It's the End of the World as We Know It (and I Feel Fine) - R.E.M. 4:05
<div style="margin-left: 2em" class="post-ul">producer: Scott Litt and R.E.M. (Athens, US rock band)
mash-ups: PL vs. The End of the World by Pretty Lights and Space Monkey Mafia by Neil Cicierega
part of: Indie 88: Top 500 Indie Rock Songs (number: 69)
recording of: It’s the End of the World as We Know It (and I Feel Fine)
writer: Bill Berry (R.E.M. drummer), Peter Buck (R.E.M. guitarist), Mike Mills (R.E.M. bass player) and Michael Stipe
publisher: Night Garden Music</div>
18. Eres Tu - Mocedades 3:32
<div style="margin-left: 2em" class="post-ul">recording of: Eres tú
composer: Juan Carlos Calderón
lyricist: Juan Carlos Calderón</div>
19. Housekeeping - Chris Farley feat. David Spade 0:29
<div style="margin-left: 2em" class="post-ul">performer: David Spade</div>
20. My Lucky Day - Smoking Popes 2:06


Трекер:  [ 31-Июл-2018 11:36 ]

  

Скачать .torrent

Размер .torrent файла 4 KB


Размер: 317 MB
Хэш (hash) релиза: d8e4c73bbfd4eda004fd339276d2ad890ac4165e

Еще никто не оставлял запись к записи скачать торрент Увалень Томми Tommy Boy . Будь первым!

!Обратная связь