Скачать через торрент [VIDEO] Разлом Сан-Андреас San Andreas бесплатно русская версия torrent активатор

Статистика раздачи
Размер:  1.81 GB   |    Зарегистрирован:  4 месяца 12 дней   |    .torrent скачан:  12 раз   |   
Раздают:  1  
   
загрузка...
 
Автор Сообщение

Galfimbul

avatar Galfimbul


Разлом Сан-Андреас / San Andreas


Год выпуска: 2015
Страна: США, Австралия, Канада
Жанр: боевик, триллер, драма
Продолжительность: 01:54:30
Перевод №1: русский Профессиональный (полное дублирование) Blu-Ray CEE
Перевод №2: украинский Профессиональный (полное дублирование) DVD R5
Перевод №3: русский Авторский (одноголосый, закадровый) А.Гаврилов
Оригинальная дорожка: Есть
Субтитры: русские (форсированные), (полные), английские (SDH)
Режиссер: Брэд Пейтон / Brad Peyton
В ролях: Дуэйн Джонсон, Карла Гуджино, Александра Даддарио, Йоан Гриффит, Арчи Панджаби, Пол Джаматти, Хьюго Джонстон-Барт, Арт Паркинсон, Уилл Юн Ли, Кайли Миноуг и другие .
Описание: Рэй — пилот спасательного вертолета, который всю свою жизнь помогал другим людям. За все время работы он насмотрелся на множество жутких вещей и не раз оказывался в очень сложных ситуациях. Несмотря на все преграды он спешил на помощь, даже не предполагая, что самое страшное ждет его впереди.
На Калифорнию обрушивается мощное землетрясение, в результате которого гибнут сотни людей и образовывается огромная трещина в земле. Во всеобщем хаосе Рэю предстоит отыскать свою дочь, но сделать это будет очень непросто. В надежде, что его ребенок все еще жив, он отправляется в смертельно опасное путешествие через весь штат .

Релиз группы

Качество: BDRip / рип с Blu-ray disc 1080p [CEE]
Формат: MP4
Видео кодек: H.264
Аудио кодек: AAC
Видео: 960x400 AR:2.40 1740 kbps 23.976 fps
Аудио №1: [Russian] 2ch 48 kHz 128 kbps - [Dub] Профессиональный (полное дублирование) Blu-Ray CEE
Аудио №2: [Ukrainian] 2ch 48 kHz 128 kbps - [Dub] Профессиональный (полное дублирование) DVD R5
Аудио №3: [Russian] 2ch 48 kHz 128 kbps - [VO] Авторский (одноголосый, закадровый) А.Гаврилов
Аудио №4: [English] 2ch 48 kHz 128 kbps - Original
avs [info]: 960x400p 1:1 @ 24000/1001 fps (cfr)
x264 [info]: using SAR=1/1
x264 [info]: using cpu capabilities: MMX2 SSE2Fast SSSE3 SSE4.2 AVX FMA3 BMI2 AVX2
x264 [info]: profile High, level 4.1

x264 [info]: frame I:1529 Avg QP:17.44 size: 49703
x264 [info]: frame P:43779 Avg QP:20.97 size: 16812
x264 [info]: frame B:119374 Avg QP:23.00 size: 5709
x264 [info]: consecutive B-frames: 4.5% 6.1% 11.8% 33.7% 16.7% 19.9% 3.6% 2.8% 1.0%
x264 [info]: mb I I16..4: 6.1% 68.7% 25.2%
x264 [info]: mb P I16..4: 1.6% 10.7% 2.4% P16..4: 41.7% 25.9% 13.4% 0.0% 0.0% skip: 4.2%
x264 [info]: mb B I16..4: 0.1% 0.9% 0.3% B16..8: 41.6% 12.0% 3.4% direct: 5.4% skip:36.4% L0:42.4% L1:44.7% BI:12.9%
x264 [info]: 8x8 transform intra:71.8% inter:66.5%
x264 [info]: direct mvs spatial:97.9% temporal:2.1%
x264 [info]: coded y,uvDC,uvAC intra: 83.3% 67.0% 32.7% inter: 27.3% 12.9% 3.4%
x264 [info]: i16 v,h,dc,p: 21% 28% 9% 42%
x264 [info]: i8 v,h,dc,ddl,ddr,vr,hd,vl,hu: 9% 9% 5% 10% 15% 14% 14% 11% 13%
x264 [info]: i4 v,h,dc,ddl,ddr,vr,hd,vl,hu: 9% 11% 3% 9% 16% 14% 15% 11% 13%
x264 [info]: i8c dc,h,v,p: 34% 31% 20% 15%
x264 [info]: Weighted P-Frames: Y:16.1% UV:7.8%
x264 [info]: ref P L0: 49.9% 13.8% 15.5% 6.1% 4.6% 3.4% 2.8% 1.7% 1.7% 0.4% 0.0%
x264 [info]: ref B L0: 79.5% 9.4% 4.7% 2.3% 1.7% 1.3% 0.8% 0.3%
x264 [info]: ref B L1: 95.5% 4.5%
x264 [info]: kb/s:1739.53

encoded 164682 frames, 20.05 fps, 1739.53 kb/s
GeneralComplete name : K:\Torrents\San Andreas.2015.BDRip.x264.960x.rip by Frost O.S.mp4Format : MPEG-4Format profile : 3GPP Release 6 GeneralCodec ID : 3gg6 (isom/3gg6/mp42)File size : 1.81 GiBDuration : 1 h 54 minOverall bit rate mode : VariableOverall bit rate : 2 260 kb/sEncoded date : UTC 2018-07-31 08:55:29Tagged date : UTC 2018-07-31 08:55:29

VideoID : 1Format : AVCFormat/Info : Advanced Video CodecFormat profile : High@L4.1Format settings : CABAC / 9 Ref FramesFormat settings, CABAC : YesFormat settings, RefFrames : 9 framesCodec ID : avc1Codec ID/Info : Advanced Video CodingDuration : 1 h 54 minBit rate : 1 740 kb/sMaximum bit rate : 7 479 kb/sWidth : 960 pixelsHeight : 400 pixelsDisplay aspect ratio : 2.40:1Frame rate mode : ConstantFrame rate : 23.976 (24000/1001) FPSColor space : YUVChroma subsampling : 4:2:0Bit depth : 8 bitsScan type : ProgressiveBits/(Pixel*Frame) : 0.189Stream size : 1.39 GiB (77%)Writing library : x264 core 152 r2851 ba24899Encoding settings : cabac=1 / ref=9 / deblock=1:-2:-1 / analyse=0x3:0x113 / me=umh / subme=10 / psy=1 / psy_rd=0.95:0.00 / mixed_ref=1 / me_range=32 / chroma_me=1 / trellis=2 / 8x8dct=1 / cqm=0 / deadzone=21,11 / fast_pskip=0 / chroma_qp_offset=-2 / threads=6 / lookahead_threads=1 / sliced_threads=0 / nr=0 / decimate=0 / interlaced=0 / bluray_compat=0 / constrained_intra=0 / bframes=8 / b_pyramid=2 / b_adapt=2 / b_bias=0 / direct=3 / weightb=1 / open_gop=0 / weightp=2 / keyint=250 / keyint_min=23 / scenecut=40 / intra_refresh=0 / rc=2pass / mbtree=0 / bitrate=1740 / ratetol=1.0 / qcomp=0.70 / qpmin=0 / qpmax=69 / qpstep=4 / cplxblur=20.0 / qblur=0.5 / ip_ratio=1.40 / pb_ratio=1.30 / aq=2:0.70Encoded date : UTC 2018-07-30 18:29:41Tagged date : UTC 2018-07-31 08:55:48Color range : LimitedColor primaries : BT.709Transfer characteristics : BT.709Matrix coefficients : BT.709

Audio #1ID : 2Format : AACFormat/Info : Advanced Audio CodecFormat profile : LCCodec ID : mp4a-40-2Duration : 1 h 54 minBit rate mode : VariableBit rate : 128 kb/sMaximum bit rate : 138 kb/sChannel(s) : 2 channelsChannel positions : Front: L RSampling rate : 48.0 kHzFrame rate : 46.875 FPS (1024 SPF)Compression mode : LossyStream size : 105 MiB (6%)Title : Russian / Dub, Blu-Ray CEEEncoded date : UTC 2018-07-31 08:20:34Tagged date : UTC 2018-07-31 08:55:48

Audio #2ID : 3Format : AACFormat/Info : Advanced Audio CodecFormat profile : LCCodec ID : mp4a-40-2Duration : 1 h 54 minBit rate mode : VariableBit rate : 128 kb/sMaximum bit rate : 137 kb/sChannel(s) : 2 channelsChannel positions : Front: L RSampling rate : 48.0 kHzFrame rate : 46.875 FPS (1024 SPF)Compression mode : LossyStream size : 105 MiB (6%)Title : Ukrainian / Dub, DVD R5Encoded date : UTC 2018-07-31 08:42:51Tagged date : UTC 2018-07-31 08:55:48

Audio #3ID : 4Format : AACFormat/Info : Advanced Audio CodecFormat profile : LCCodec ID : mp4a-40-2Duration : 1 h 54 minBit rate mode : VariableBit rate : 128 kb/sMaximum bit rate : 138 kb/sChannel(s) : 2 channelsChannel positions : Front: L RSampling rate : 48.0 kHzFrame rate : 46.875 FPS (1024 SPF)Compression mode : LossyStream size : 105 MiB (6%)Title : Russian / VO, GavrilovEncoded date : UTC 2018-07-31 08:24:22Tagged date : UTC 2018-07-31 08:55:48

Audio #4ID : 5Format : AACFormat/Info : Advanced Audio CodecFormat profile : LCCodec ID : mp4a-40-2Duration : 1 h 54 minBit rate mode : VariableBit rate : 128 kb/sMaximum bit rate : 138 kb/sChannel(s) : 2 channelsChannel positions : Front: L RSampling rate : 48.0 kHzFrame rate : 46.875 FPS (1024 SPF)Compression mode : LossyStream size : 105 MiB (6%)Title : English / OriginalEncoded date : UTC 2018-07-31 08:16:49Tagged date : UTC 2018-07-31 08:55:48

Text #1ID : 6Format : Timed TextCodec ID : tx3gDuration : 1 h 54 minBit rate mode : VariableBit rate : 2 b/sStream size : 1.32 KiB (0%)Title : Russian / ForcedForced : NoEncoded date : UTC 2018-07-31 08:55:48Tagged date : UTC 2018-07-31 08:55:48

Text #2ID : 7Format : Timed TextCodec ID : tx3gDuration : 1 h 54 minBit rate mode : VariableBit rate : 65 b/sStream size : 54.5 KiB (0%)Title : Russian / FullForced : NoEncoded date : UTC 2018-07-31 08:55:48Tagged date : UTC 2018-07-31 08:55:48

Text #3ID : 8Format : Timed TextCodec ID : tx3gDuration : 1 h 54 minBit rate mode : VariableBit rate : 54 b/sStream size : 45.2 KiB (0%)Title : English / SDHForced : NoEncoded date : UTC 2018-07-31 08:55:48Tagged date : UTC 2018-07-31 08:55:48


Трекер:  [ 31-Июл-2018 12:36 ]

  

Скачать .torrent

Размер .torrent файла 18 KB


Размер: 1.81 GB
Хэш (hash) релиза: dd8c6347ab14bf73eb07994f29115a353ff32f11

Еще никто не оставлял запись к записи скачать торрент [VIDEO] Разлом Сан-Андреас San Andreas . Будь первым!

!Обратная связь