Скачать через торрент [VIDEO] Разлом Сан-Андреас San Andreas бесплатно русская версия torrent активатор

Статистика раздачи
Размер:  2.81 GB   |    Зарегистрирован:  4 месяца 12 дней   |    .torrent скачан:  14 раз   |   
Раздают:  1  
   
загрузка...
 
Автор Сообщение

Galfimbul

avatar Galfimbul


Разлом Сан-Андреас / San Andreas


Год выпуска: 2015
Страна: США, Австралия, Канада
Жанр: боевик, триллер, драма
Продолжительность: 01:54:30
Перевод №1: русский Профессиональный (полное дублирование) Blu-Ray CEE
Перевод №2: украинский Профессиональный (полное дублирование) DVD R5
Перевод №3: русский Авторский (одноголосый, закадровый) А.Гаврилов
Оригинальная дорожка: Есть
Субтитры: русские (форсированные), (полные), английские (SDH)
Режиссер: Брэд Пейтон / Brad Peyton
В ролях: Дуэйн Джонсон, Карла Гуджино, Александра Даддарио, Йоан Гриффит, Арчи Панджаби, Пол Джаматти, Хьюго Джонстон-Барт, Арт Паркинсон, Уилл Юн Ли, Кайли Миноуг и другие .
Описание: Рэй — пилот спасательного вертолета, который всю свою жизнь помогал другим людям. За все время работы он насмотрелся на множество жутких вещей и не раз оказывался в очень сложных ситуациях. Несмотря на все преграды он спешил на помощь, даже не предполагая, что самое страшное ждет его впереди.
На Калифорнию обрушивается мощное землетрясение, в результате которого гибнут сотни людей и образовывается огромная трещина в земле. Во всеобщем хаосе Рэю предстоит отыскать свою дочь, но сделать это будет очень непросто. В надежде, что его ребенок все еще жив, он отправляется в смертельно опасное путешествие через весь штат .

Релиз группы

Качество: BDRip / рип с Blu-ray disc 1080p [CEE]
Формат: MP4
Видео кодек: H.264
Аудио кодек: AAC
Видео: 1280x532 AR: 3000 kbps 23.976 fps
Аудио №1: [Russian] 2ch 48 kHz 128 kbps - [Dub] Профессиональный (полное дублирование) Blu-Ray CEE
Аудио №2: [Ukrainian] 2ch 48 kHz 128 kbps - [Dub] Профессиональный (полное дублирование) DVD R5
Аудио №3: [Russian] 2ch 48 kHz 128 kbps - [VO] Авторский (одноголосый, закадровый) А.Гаврилов
Аудио №4: [English] 2ch 48 kHz 128 kbps - Original
avs [info]: 1280x532p 1:1 @ 24000/1001 fps (cfr)
x264 [info]: using SAR=1/1
x264 [info]: using cpu capabilities: MMX2 SSE2Fast SSSE3 SSE4.2 AVX FMA3 BMI2 AVX2
x264 [info]: profile High, level 4.1

x264 [info]: frame I:1426 Avg QP:17.89 size: 82215
x264 [info]: frame P:44352 Avg QP:21.31 size: 28485
x264 [info]: frame B:118904 Avg QP:23.16 size: 10040
x264 [info]: consecutive B-frames: 4.6% 6.9% 11.8% 32.9% 15.5% 20.5% 3.8% 3.1% 0.9%
x264 [info]: mb I I16..4: 6.7% 74.3% 19.0%
x264 [info]: mb P I16..4: 1.1% 8.9% 1.6% P16..4: 35.2% 39.9% 9.8% 0.0% 0.0% skip: 3.5%
x264 [info]: mb B I16..4: 0.1% 1.0% 0.2% B16..8: 40.7% 19.4% 2.7% direct: 4.4% skip:31.4% L0:43.9% L1:47.4% BI: 8.7%
x264 [info]: 8x8 transform intra:77.0% inter:64.9%
x264 [info]: direct mvs spatial:98.5% temporal:1.5%
x264 [info]: coded y,uvDC,uvAC intra: 86.2% 69.0% 32.0% inter: 28.4% 14.2% 2.8%
x264 [info]: i16 v,h,dc,p: 13% 41% 3% 43%
x264 [info]: i8 v,h,dc,ddl,ddr,vr,hd,vl,hu: 6% 6% 4% 11% 17% 15% 16% 12% 13%
x264 [info]: i4 v,h,dc,ddl,ddr,vr,hd,vl,hu: 15% 11% 3% 8% 15% 13% 14% 10% 11%
x264 [info]: i8c dc,h,v,p: 31% 31% 19% 18%
x264 [info]: Weighted P-Frames: Y:12.5% UV:6.4%
x264 [info]: ref P L0: 48.9% 12.1% 16.5% 6.4% 5.0% 3.6% 3.2% 1.9% 1.9% 0.4% 0.0%
x264 [info]: ref B L0: 78.9% 9.7% 4.8% 2.4% 1.7% 1.3% 0.9% 0.3%
x264 [info]: ref B L1: 95.7% 4.3%
x264 [info]: kb/s:2998.46

encoded 164682 frames, 9.00 fps, 2998.46 kb/s
GeneralComplete name : K:\Torrents\San Andreas.2015.BDRip.x264.1280x.rip by Frost O.S.mp4Format : MPEG-4Format profile : 3GPP Release 6 GeneralCodec ID : 3gg6 (isom/3gg6/mp42)File size : 2.81 GiBDuration : 1 h 54 minOverall bit rate mode : VariableOverall bit rate : 3 519 kb/sEncoded date : UTC 2018-07-31 08:50:49Tagged date : UTC 2018-07-31 08:50:49Writing application : Yamb 2.1.0.0

VideoID : 1Format : AVCFormat/Info : Advanced Video CodecFormat profile : High@L4.1Format settings : CABAC / 9 Ref FramesFormat settings, CABAC : YesFormat settings, RefFrames : 9 framesCodec ID : avc1Codec ID/Info : Advanced Video CodingDuration : 1 h 54 minBit rate : 3 000 kb/sMaximum bit rate : 9 232 kb/sWidth : 1 280 pixelsHeight : 532 pixelsDisplay aspect ratio : 2.40:1Frame rate mode : ConstantFrame rate : 23.976 (24000/1001) FPSColor space : YUVChroma subsampling : 4:2:0Bit depth : 8 bitsScan type : ProgressiveBits/(Pixel*Frame) : 0.184Stream size : 2.40 GiB (85%)Writing library : x264 core 152 r2851 ba24899Encoding settings : cabac=1 / ref=9 / deblock=1:-2:-1 / analyse=0x3:0x113 / me=umh / subme=11 / psy=1 / psy_rd=1.00:0.00 / mixed_ref=1 / me_range=32 / chroma_me=1 / trellis=2 / 8x8dct=1 / cqm=0 / deadzone=21,11 / fast_pskip=0 / chroma_qp_offset=-2 / threads=6 / lookahead_threads=1 / sliced_threads=0 / nr=0 / decimate=0 / interlaced=0 / bluray_compat=0 / constrained_intra=0 / bframes=8 / b_pyramid=2 / b_adapt=2 / b_bias=0 / direct=3 / weightb=1 / open_gop=0 / weightp=2 / keyint=250 / keyint_min=23 / scenecut=40 / intra_refresh=0 / rc=2pass / mbtree=0 / bitrate=3000 / ratetol=1.0 / qcomp=0.70 / qpmin=0 / qpmax=69 / qpstep=4 / cplxblur=20.0 / qblur=0.5 / ip_ratio=1.40 / pb_ratio=1.30 / aq=2:0.80Encoded date : UTC 2018-07-30 14:37:20Tagged date : UTC 2018-07-31 08:51:34Color range : LimitedColor primaries : BT.709Transfer characteristics : BT.709Matrix coefficients : BT.709

Audio #1ID : 2Format : AACFormat/Info : Advanced Audio CodecFormat profile : LCCodec ID : mp4a-40-2Duration : 1 h 54 minBit rate mode : VariableBit rate : 128 kb/sMaximum bit rate : 138 kb/sChannel(s) : 2 channelsChannel positions : Front: L RSampling rate : 48.0 kHzFrame rate : 46.875 FPS (1024 SPF)Compression mode : LossyStream size : 105 MiB (4%)Title : Russian / Dub, Blu-Ray CEEEncoded date : UTC 2018-07-31 08:20:34Tagged date : UTC 2018-07-31 08:51:34

Audio #2ID : 3Format : AACFormat/Info : Advanced Audio CodecFormat profile : LCCodec ID : mp4a-40-2Duration : 1 h 54 minBit rate mode : VariableBit rate : 128 kb/sMaximum bit rate : 137 kb/sChannel(s) : 2 channelsChannel positions : Front: L RSampling rate : 48.0 kHzFrame rate : 46.875 FPS (1024 SPF)Compression mode : LossyStream size : 105 MiB (4%)Title : Ukrainian / Dub, DVD R5Encoded date : UTC 2018-07-31 08:42:51Tagged date : UTC 2018-07-31 08:51:34

Audio #3ID : 4Format : AACFormat/Info : Advanced Audio CodecFormat profile : LCCodec ID : mp4a-40-2Duration : 1 h 54 minBit rate mode : VariableBit rate : 128 kb/sMaximum bit rate : 138 kb/sChannel(s) : 2 channelsChannel positions : Front: L RSampling rate : 48.0 kHzFrame rate : 46.875 FPS (1024 SPF)Compression mode : LossyStream size : 105 MiB (4%)Title : Russian / VO, GavrilovEncoded date : UTC 2018-07-31 08:24:22Tagged date : UTC 2018-07-31 08:51:34

Audio #4ID : 5Format : AACFormat/Info : Advanced Audio CodecFormat profile : LCCodec ID : mp4a-40-2Duration : 1 h 54 minBit rate mode : VariableBit rate : 128 kb/sMaximum bit rate : 138 kb/sChannel(s) : 2 channelsChannel positions : Front: L RSampling rate : 48.0 kHzFrame rate : 46.875 FPS (1024 SPF)Compression mode : LossyStream size : 105 MiB (4%)Title : English / OriginalEncoded date : UTC 2018-07-31 08:16:49Tagged date : UTC 2018-07-31 08:51:34

Text #1ID : 6Format : Timed TextCodec ID : tx3gDuration : 1 h 54 minBit rate mode : VariableBit rate : 2 b/sStream size : 1.32 KiB (0%)Title : Russian / ForcedForced : NoEncoded date : UTC 2018-07-31 08:51:34Tagged date : UTC 2018-07-31 08:51:34

Text #2ID : 7Format : Timed TextCodec ID : tx3gDuration : 1 h 54 minBit rate mode : VariableBit rate : 65 b/sStream size : 54.5 KiB (0%)Title : Russian / FullForced : NoEncoded date : UTC 2018-07-31 08:51:34Tagged date : UTC 2018-07-31 08:51:34

Text #3ID : 8Format : Timed TextCodec ID : tx3gDuration : 1 h 54 minBit rate mode : VariableBit rate : 54 b/sStream size : 45.2 KiB (0%)Title : English / SDHForced : NoEncoded date : UTC 2018-07-31 08:51:34Tagged date : UTC 2018-07-31 08:51:34


Трекер:  [ 31-Июл-2018 12:36 ]

  

Скачать .torrent

Размер .torrent файла 14 KB


Размер: 2.81 GB
Хэш (hash) релиза: 3609f1a4adb68f333c2ec5af992bac33e3b82e64

Еще никто не оставлял запись к записи скачать торрент [VIDEO] Разлом Сан-Андреас San Andreas . Будь первым!

!Обратная связь