Скачать через торрент Кошачий Рай бесплатно Аниме Все серии на русском torrent

Статистика раздачи
Размер:  1.56 GB   |    Зарегистрирован:  2 месяца 17 дней   |    .torrent скачан:  38 раз   |   
Раздают:  1  
   
загрузка...
 
Автор Сообщение

Galfimbul

avatar Galfimbul



Страна: Япония
Год выпуска: 2017
Жанр: комедия, романтика
Тип: OVA | Продолжительность: 1 эп, ~58 мин
Субтитры:
Полные/надписи: А2react; Переводчик: Андрей Зайцев; Редактор: Алиса Трушина
Озвучка:
Anilibria; Многоголосая: Silv & Cleo-chan & Hekomi & Sharon (жен × 3 & муж)
Режиссер: Хаяси Хироки
Студия:

Описание: Кашо Миназуки наконец-то исполнил свою мечту, переехал от родителей и готовится открыть свою собственную кондитерскую. Покидая родной дом, он оставил там двух своих милых питомцев — близняшек-нэко, энергичную Чоколу и задумчивую Ваниллу. Кашо было жалко оставлять их, но он понимал, что у него больше не будет времени, чтобы заботиться об этой неугомонной парочке. Но не тут-то было! Его сестра Шигурэ Миназуки, обожающая нэко и своего братика, видя, как страдают её любимицы без обожаемого хозяина, не долго думая взяла и прислала этих двух очаровательных близняшек Кашо посылкой по почте! И что же теперь ему с ними делать?
История кондитерской «La Soleil», которая прославится в будущем как кошачий рай, начинается!
© Sfairat
Доп. информация: World-art
Качество: BDRip | Автор рипа: =^_^= & Jensen & Zabr [Beatrice-Raws]
Тип релиза: Без хардсаба, без линковки
Формат видео: MKV
Видео: x264; V_MPEG4; 1280x720; 3411 Кбит/сек; 23,976 кадра/сек; (Hi10P)
Аудио: JAP(int); Vorbis Q8; 256 Кбит/сек; 48,0 КГц; 2 канала
Аудио 2: RUS(ext); AAC, 192 Кбит/сек, 48.0 КГц, 2 канала
Субтитры: RUS(ext); ASS
ОбщееУникальный идентификатор : 249077071262376077295422135871996779805 (0xBB627FBE7E4E5EA999BBD7C44BAD5D1D)Полное имя : D:\Film\[Beatrice-Raws] Nekopara OVA [BDRip 1280x720 x264 Vorbis]\[Beatrice-Raws] Nekopara OVA [BDRip 1280x720 x264 Vorbis].mkvФормат : MatroskaВерсия формата : Version 4 / Version 2Размер файла : 1,48 ГбайтПродолжительность : 58 м. 6 с.Режим общего битрейта : ПеременныйОбщий поток : 3647 Кбит/секДата кодирования : UTC 2018-01-24 22:09:58Программа кодирования : mkvmerge v17.0.0 ('Be Ur Friend') 64-bitБиблиотека кодирования : libebml v1.3.5 + libmatroska v1.4.8

ВидеоИдентификатор : 1Формат : AVCФормат/Информация : Advanced Video CodecПрофиль формата : High 10@L5Настройки формата : CABAC / 6 Ref FramesПараметр CABAC формата : ДаПараметр RefFrames формата : 6 кадровИдентификатор кодека : V_MPEG4/ISO/AVCПродолжительность : 58 м. 6 с.Битрейт : 3411 Кбит/секШирина : 1280 пикселейВысота : 720 пикселейСоотношение сторон : 16:9Режим частоты кадров : ПостоянныйЧастота кадров : 23,976 (24000/1001) кадра/секЦветовое пространство : YUVСубдискретизация насыщенности : 4:2:0Битовая глубина : 10 битТип развёртки : ПрогрессивнаяБит/(Пиксели*Кадры) : 0.154Размер потока : 1,38 Гбайт (94%)Заголовок : BDrip by =^_^= & Jensen & ZabrБиблиотека кодирования : x264 core 148 r2597M e86f3a1 (DJATOM's build)Настройки программы : cabac=1 / ref=6 / deblock=1:1:-1 / analyse=0x3:0x113 / me=umh / subme=9 / psy=1 / fade_compensate=0.00 / psy_rd=1.00:0.00 / mixed_ref=1 / me_range=32 / chroma_me=1 / trellis=2 / 8x8dct=1 / cqm=0 / deadzone=21,11 / fast_pskip=1 / chroma_qp_offset=-2 / threads=22 / lookahead_threads=3 / sliced_threads=0 / nr=0 / decimate=1 / interlaced=0 / bluray_compat=0 / constrained_intra=0 / bframes=9 / b_pyramid=2 / b_adapt=2 / b_bias=0 / direct=1 / weightb=1 / open_gop=0 / weightp=2 / keyint=240 / keyint_min=23 / scenecut=40 / intra_refresh=0 / rc=crf / mbtree=0 / crf=14.0000 / qcomp=0.72 / qpmin=0 / qpmax=81 / qpstep=4 / ip_ratio=1.40 / pb_ratio=1.30 / aq=1:0.85Язык : JapaneseDefault : ДаForced : НетЦветовой диапазон : LimitedОсновные цвета : BT.709Характеристики трансфера : BT.709Коэффициенты матрицы : BT.709

АудиоИдентификатор : 2Формат : VorbisПараметр Floor формата : 1Идентификатор кодека : A_VORBISПродолжительность : 58 м. 6 с.Вид битрейта : ПеременныйБитрейт : 256 Кбит/секКаналы : 2 каналаЧастота : 48,0 КГцЧастота кадров : 110,839 кадров/сек (433 SPF)Метод сжатия : С потерямиРазмер потока : 96,7 Мбайт (6%)Библиотека кодирования : aoTuV 20110424 (UTC 2011-04-24)Язык : JapaneseDefault : ДаForced : Нет

Меню00:00:00.000 : en:Avant00:00:34.075 : en:OP00:02:04.165 : en:Part A00:21:34.293 : en:Part B00:39:28.616 : en:Part C00:52:25.559 : en:Part D00:54:14.209 : en:ED
...5500925 - BDRip
...5510310 - BDRip
...5511592 - BDRip 720p


Трекер:  [ 31-Июл-2018 17:01 ]

  

Скачать .torrent

Размер .torrent файла 16 KB


Размер: 1.56 GB
Хэш (hash) релиза: 809da837299dae9402491cd89c8160af8834db15
Подписка на обновления:

Торренты, похожие на Кошачий Рай скачать торрент

Форум Название Автор Размер S L Добавлен
Аниме | HD Rips ·· Кошачий рай / Nekopara [OVA] [1 из 1] [без хардсаба] [RUS(ext), JAP+SUB] [2017, комедия, романтика, BDRemux] [1080p] Galfimbul 1613499961915.03 GB 0 0 1516572115

01:01

22-Янв-18

Аниме | HD Rips ·· NEKOPARA / Кошачий рай [OVA] [Без хардсаба] [RUS(int), JAP+SUB] [2017, Комедия, Романтика, WEB-Rip] [1080p] Galfimbul 24191389112.25 GB 0 0 1514754100

00:01

1-Янв-18

Еще никто не оставлял запись к записи скачать торрент Кошачий Рай . Будь первым!

!Обратная связь