Скачать через торрент Так держать, якудза Carry on Yakuza Фильм бесплатно в хорошем качестве torrent

Скачивайте на UnionPeer.org фильмы через торрент без регистрации. Новинки кино в хорошем качестве через торрент. На UnionPeer.org можно скачать через торрент фильмы 2014 и 2015 годов. Самые новые фильмы.

Скачать торрент Так держать, якудза Carry on Yakuza бесплатно через .torrent фильм мультфильм сериал

Статистика раздачи
Размер:  1.37 GB   |    Зарегистрирован:  1 год   |    .torrent скачан:  42 раза   |   
Раздают:  1  
   
загрузка...
 
Автор Сообщение

Galfimbul

avatar Galfimbul


Так держать, якудза / Carry on Yakuza / Hak do fuk sing

Страна: Гонконг
Жанр: комедия, криминал
Год выпуска: 1989
Продолжительность: 01:39:44

Перевод: Одноголосый закадровый Хоррор Мэйкер
Субтитры: Английские / Китайские (вшитые)
Режиссер: Филлип Чан Ян-Кин / Philip Chan Yan Kin

В ролях: Майкл Чан, Чеунг Квок-Кеунг, Лау Кар-Винг, Динни Йип, Филлип Чан, Брюс Лунг, Шинг Фуй-Он, Деннис Чан, Ха Чи-Джан

Описание: Чарли с тренером отправляются на боксёрский турнир в Японию. Цель - только победа. Местная якудза имеет на этот счёт своё прямо противоположное мнение. Однако, Чарли, не смотря ни на что, накаутирует противника. Начинается погоня, им приходится выдать себя за главарей триады, тем самым втянув себя в дерзкую и опасную авантюру с криминальными разборками японских кланов....

Сэмпл: http://multi-up.com/1205093

Качество видео: DVDRip (Исходник - DVD5)
Формат видео: AVI

Видео: XviD 73, 608x454, (4:3), 23,976 fps, 1769 Кбит/с, 8 бит, 0.26 bit/pixel
Аудио: Русский (АС3, 2 ch (Front: L R), 48,0 KHz, 192 Kbps)
ОбщееПолное имя : H:\Фильмы на трекер\Так держать, якудза (комедия, криминал 1989 год).aviФормат : AVIФормат/Информация : Audio Video InterleaveРазмер файла : 1,37 ГбайтПродолжительность : 1 ч. 39 м.Общий поток : 1971 Кбит/секПрограмма кодирования : VirtualDubMod 1.5.10.3 | www.virtualdub-fr.org || (build 2550/release)Библиотека кодирования : VirtualDubMod build 2550/release

ВидеоИдентификатор : 0Формат : MPEG-4 VisualПрофиль формата : Advanced Simple@L5Параметр BVOP формата : 2Параметр QPel формата : НетПараметр GMC формата : Без точки переходаПараметр матрицы формата : ВыборочнаяИдентификатор кодека : XVIDИдентификатор кодека/Подсказка : XviDПродолжительность : 1 ч. 39 м.Битрейт : 1769 Кбит/секШирина : 608 пикселейВысота : 464 пикселяСоотношение сторон : 4:3Частота кадров : 23,976 (24000/1001) кадра/секЦветовое пространство : YUVСубдискретизация насыщенности : 4:2:0Битовая глубина : 8 битТип развёртки : ПрогрессивнаяМетод сжатия : С потерямиБит/(Пиксели*Кадры) : 0.262Размер потока : 1,23 Гбайт (90%)Библиотека кодирования : XviD 73

АудиоИдентификатор : 1Формат : AC-3Формат/Информация : Audio Coding 3Расширение режима : CM (complete main)Параметр Endianness формата : BigИдентификатор кодека : 2000Продолжительность : 1 ч. 39 м.Вид битрейта : ПостоянныйБитрейт : 192 Кбит/секКаналы : 2 каналаРасположение каналов : Front: L RЧастота : 48,0 КГцЧастота кадров : 31,250 кадров/сек (1536 spf)Метод сжатия : С потерямиРазмер потока : 137 Мбайт (10%)Выравнивание : Разделение по промежуткамПродолжительность промежутка : 42 мс. (1,00 видеокадр)Время предзагрузки промежутка : 500 мс.


Трекер:  [ 31-Июл-2018 18:01 ]

  

Скачать .torrent

Размер .torrent файла 14 KB


Размер: 1.37 GB
Хэш (hash) релиза: f2328f07a89a7fe0d6063ae984974ab85e77a89f
Подписка на обновления:

Еще никто не оставлял запись к записи скачать торрент Так держать, якудза Carry on Yakuza . Будь первым!

!Обратная связь