Скачать через торрент 2018 ITTF World Tour Platinum Australian Open Финалы Фильм бесплатно в хорошем качестве torrent

Скачивайте на UnionPeer.org фильмы через торрент без регистрации. Новинки кино в хорошем качестве через торрент. На UnionPeer.org можно скачать через торрент фильмы 2014 и 2015 годов. Самые новые фильмы.

Скачать торрент 2018 ITTF World Tour Platinum Australian Open Финалы бесплатно через .torrent фильм мультфильм сериал

Статистика раздачи
Размер:  3.25 GB   |    Зарегистрирован:  2 месяца 17 дней   |    .torrent скачан:  30 раз   |   
Раздают:  1  
   
загрузка...
 
Автор Сообщение

Galfimbul

avatar Galfimbul


2018 ITTF World Tour Platinum Australian Open
Год выпуска: 30.07.2018
Вид спорта: Настольный теннис
Комментарий: Профессиональный
Язык комментариев: Русский (Анастасия Кольцова) / Английский
Описание: 2018 ITTF World Tour Platinum Australian Open. Финалы

Доп. информация: Всё сокращено как всегда.
Автор рипа: Настольный Теннисист

Качество: HDTV
Формат: TS
Видео кодек: AVC
Аудио кодек: MP2
Видео: MPEG4 Video (H264) 1920x1080 (16:9) 25fps 9337kbps
Аудио: MPEG Audio 48000Hz stereo 192kbps
GeneralID : 1 (0x1)Complete name : F:\Table Tennis\2018 ITTF WORLD TOUR PLATINUM AUSTRALIAN OPEN EUROSPORT HD. Злобный.tsFormat : MPEG-TSFile size : 3.25 GiBDuration : 45 min 27 sOverall bit rate mode : VariableOverall bit rate : 10.2 Mb/s

VideoID : 301 (0x12D)Menu ID : 26001 (0x6591)Format : AVCFormat/Info : Advanced Video CodecFormat profile : High@L4Format settings, CABAC : YesFormat settings, RefFrames : 4 framesCodec ID : 27Duration : 45 min 27 sBit rate : 9 337 kb/sWidth : 1 920 pixelsHeight : 1 080 pixelsDisplay aspect ratio : 16:9Frame rate : 25.000 FPSStandard : ComponentColor space : YUVChroma subsampling : 4:2:0Bit depth : 8 bitsScan type : InterlacedScan type, store method : Separated fieldsScan order : Top Field FirstBits/(Pixel*Frame) : 0.180Stream size : 2.96 GiB (91%)Color range : LimitedColor primaries : BT.709Transfer characteristics : BT.709Matrix coefficients : BT.709

Audio #1ID : 401 (0x191)Menu ID : 26001 (0x6591)Format : MPEG AudioFormat version : Version 1Format profile : Layer 2Codec ID : 3Duration : 45 min 27 sBit rate mode : ConstantBit rate : 192 kb/sChannel(s) : 2 channelsSampling rate : 48.0 kHzCompression mode : LossyStream size : 62.4 MiB (2%)Language : Russian

Audio #2ID : 402 (0x192)Menu ID : 26001 (0x6591)Format : MPEG AudioFormat version : Version 1Format profile : Layer 2Codec ID : 3Duration : 45 min 27 sBit rate mode : ConstantBit rate : 192 kb/sChannel(s) : 2 channelsSampling rate : 48.0 kHzCompression mode : LossyStream size : 62.4 MiB (2%)Language : English
ЖЕНЩИНЫ. ПАРЫ. ФИНАЛ

МУЖЧИНЫ. ПАРЫ. ФИНАЛ

ЖЕНЩИНЫ. ФИНАЛ

МУЖЧИНЫ. ФИНАЛ
Общая продолжительность: 00:45:27

ЖЕНЩИНЫ. ПАРЫ. ФИНАЛ

МУЖЧИНЫ. ПАРЫ. ФИНАЛ

ЖЕНЩИНЫ. ФИНАЛ

МУЖЧИНЫ. ФИНАЛ


Трекер:  [ 31-Июл-2018 18:42 ]

  

Скачать .torrent

Размер .torrent файла 16 KB


Размер: 3.25 GB
Хэш (hash) релиза: 1318d99e1bbb8b6d0d27b061820430ccda95d4bb
Подписка на обновления:

Торренты, похожие на 2018 ITTF World Tour Platinum Australian Open Финалы скачать торрент

Форум Название Автор Размер S L Добавлен
Спорт ·%· 2018 ITTF World Tour Platinum Australian Open / Финалы / Eurosport 1 HD [29.07.2018, Настольный теннис, HDTVRip/720p/50fps, MKV/H.264, RU/EN] Galfimbul 15528169681.45 GB 0 0 1533057137

20:12

31-Июл-18

Еще никто не оставлял запись к записи скачать торрент 2018 ITTF World Tour Platinum Australian Open Финалы . Будь первым!

!Обратная связь