Скачать через торрент Человек-паук Marvels Spider-Man Фильм бесплатно в хорошем качестве torrent

Скачивайте на UnionPeer.org фильмы через торрент без регистрации. Новинки кино в хорошем качестве через торрент. На UnionPeer.org можно скачать через торрент фильмы 2014 и 2015 годов. Самые новые фильмы.

Скачать торрент Человек-паук Marvels Spider-Man бесплатно через .torrent фильм мультфильм сериал

Статистика раздачи
Размер:  23.32 GB   |    Зарегистрирован:  2 месяца 16 дней   |    .torrent скачан:  28 раз   |   
Раздают:  1  
   
загрузка...
 
Автор Сообщение

Galfimbul

avatar Galfimbul


Человек-паук / Marvel's Spider-Man

Страна: США
Жанр: мультфильм, фантастика, боевик, приключения
Продолжительность серии: 00:22:00
Год выпуска: 2017
Перевод: Профессиональный (дублированный)
Русские субтитры: нет

Режиссёр: Филип Пиньотти, Эрик Радомски / Philip Pignotti, Eric Radomski
Роли озвучивали: Робби Дэймонд, Макс Миттелман, Фред Татаскьор, Наджи Джетер, Лора Бэйли, Джошуа Китон, Скотт Менвиль, Бен Дискин, Нэнси Линари

Описание: После укуса генетически модифицированного паука Питер Паркер пытается контролировать полученные суперспособности и бороться с преступностью в качестве супергероя - Человека-Паука.

Качество: WEB-DL 1080p
Формат: MKV
Видео: MPEG4 Video (H264) 1920x1080 23.976fps ~5500 kbps
Аудио: [Русский] Dolby AC3 48000Hz stereo 192kbps
Аудио 2: [Английский] AC3 48000Hz 6ch 384 kbps
Аудио 3: [Английский] AAC 48000Hz stereo 157kbps
Субтитры: Английские, отключаемые

Работа со звуком: WORTEXSON
00.Origin
01.Horizon.High.Part.1
02.Horizon.High.Part.2
03.Osborn.Academy
04.A.Day.in.the.Life
05.Party.Animals
06.Sandman
07.Symbiotic.Relationship
08.Stark.Expo
09.Ultimate.Spider-Man
10.Kravens.Amazing.Hunt
11.Halloween.Moon
12.Spider-Man.On.Ice
13.Venom
14.Screwball.Live
15.The.Rise.of.Doc.Ock.Part.1
16.The.Rise.of.Doc.Ock.Part.2
17.The.Rise.of.Doc.Ock.Part.3
18.The.Rise.of.Doc.Ock.Part.4
19.Spider-Island.Part.1
20.Spider-Island.Part.2
21.Spider-Island.Part.3
22.Spider-Island.Part.4
23.Spider-Island.Part.5
24.The.Hobgoblin.Part.1
25.The.Hobgoblin.Part.2
GeneralUnique ID : 214366355219787187235149858149216020741 (0xA145755071177CAEF798CBC8C963E905)Complete name : D:\Disney_XD\Marvel.Spider-Man.2017.WEB-DL1080p\Marvel.Spider-Man.2017.S01E00.Origin.1080p.WEB-DL.Rus.Eng.H264.mkvFormat : MatroskaFormat version : Version 4 / Version 2File size : 927 MiBDuration : 22 min 7 sOverall bit rate : 5 861 kb/sMovie name : Marvel Spider-Man 2017 S1 EP00Encoded date : UTC 2018-07-12 21:19:47Writing application : mkvmerge v23.0.0 ('The Bride Said No') 64-bitWriting library : libebml v1.3.6 + libmatroska v1.4.9Cover : YesAttachments : cover.jpg

VideoID : 1Format : AVCFormat/Info : Advanced Video CodecFormat profile : High@L4Format settings : CABAC / 4 Ref FramesFormat settings, CABAC : YesFormat settings, ReFrames : 4 framesCodec ID : V_MPEG4/ISO/AVCDuration : 22 min 7 sBit rate : 5 124 kb/sWidth : 1 920 pixelsHeight : 1 080 pixelsDisplay aspect ratio : 16:9Frame rate mode : ConstantFrame rate : 23.976 (24000/1001) FPSColor space : YUVChroma subsampling : 4:2:0Bit depth : 8 bitsScan type : ProgressiveBits/(Pixel*Frame) : 0.103Stream size : 811 MiB (87%)Title : by WORTEXSONLanguage : EnglishDefault : YesForced : NoColor range : LimitedColor primaries : BT.709Transfer characteristics : BT.709Matrix coefficients : BT.709

Audio #1ID : 2Format : AC-3Format/Info : Audio Coding 3Codec ID : A_AC3Duration : 22 min 7 sBit rate mode : ConstantBit rate : 192 kb/sChannel(s) : 2 channelsChannel positions : Front: L RSampling rate : 48.0 kHzFrame rate : 31.250 FPS (1536 SPF)Bit depth : 16 bitsCompression mode : LossyStream size : 30.4 MiB (3%)Title : rus : ac-3 : 2.0 : 192 kb/sLanguage : RussianService kind : Complete MainDefault : YesForced : No

Audio #2ID : 3Format : AC-3Format/Info : Audio Coding 3Codec ID : A_AC3Duration : 22 min 7 sBit rate mode : ConstantBit rate : 384 kb/sChannel(s) : 6 channelsChannel positions : Front: L C R, Side: L R, LFESampling rate : 48.0 kHzFrame rate : 31.250 FPS (1536 SPF)Bit depth : 16 bitsCompression mode : LossyStream size : 60.8 MiB (7%)Title : eng : ac-3 : 5.1 : 384 kb/sLanguage : EnglishService kind : Complete MainDefault : NoForced : No

Audio #3ID : 4Format : AACFormat/Info : Advanced Audio CodecFormat profile : LCCodec ID : A_AAC-2Duration : 22 min 7 sBit rate : 157 kb/sChannel(s) : 2 channelsChannel positions : Front: L RSampling rate : 48.0 kHzFrame rate : 46.875 FPS (1024 SPF)Compression mode : LossyStream size : 24.8 MiB (3%)Title : eng : aac : 2.0 : 157 kb/sLanguage : EnglishDefault : NoForced : No

TextID : 5Format : UTF-8Codec ID : S_TEXT/UTF8Codec ID/Info : UTF-8 Plain TextDuration : 21 min 35 sBit rate : 102 b/sCount of elements : 453Stream size : 16.3 KiB (0%)Title : eng : subLanguage : EnglishDefault : NoForced : No
Предыдущие и альтернативные раздачи

Трекер:  [ 31-Июл-2018 19:54 ]

  

Скачать .torrent

Размер .torrent файла 61 KB


Размер: 23.32 GB
Хэш (hash) релиза: 7ef7f84276a46efee0fd6f32d20b7b3660d0bf08
Подписка на обновления:

Еще никто не оставлял запись к записи скачать торрент Человек-паук Marvels Spider-Man . Будь первым!

!Обратная связь