Скачать через торрент 2018 ITTF World Tour Platinum Australian Open Финалы Фильм бесплатно в хорошем качестве torrent

Скачивайте на UnionPeer.org фильмы через торрент без регистрации. Новинки кино в хорошем качестве через торрент. На UnionPeer.org можно скачать через торрент фильмы 2014 и 2015 годов. Самые новые фильмы.

Скачать торрент 2018 ITTF World Tour Platinum Australian Open Финалы бесплатно через .torrent фильм мультфильм сериал

Статистика раздачи
Размер:  1.45 GB   |    Зарегистрирован:  4 месяца 11 дней   |    .torrent скачан:  35 раз   |   
Раздают:  1  
   
загрузка...
 
Автор Сообщение

Galfimbul

avatar Galfimbul


2018 ITTF World Tour Platinum Australian Open
Год выпуска: 29.07.2018
Вид спорта: Настольный теннис
Комментарий: Профессиональный
Язык комментариев: Русский (Мужик какой-то) / Английский
Описание: 2018 ITTF World Tour Platinum Australian Open. Финалы

Доп. информация: Всё сокращено как всегда.
Автор рипа: Настольный Теннисист

Качество: HDTVRip (Исходник)
Формат: MKV
Видео кодек: H.264
Аудио кодек: AC3
Видео: MPEG4 Video (H.264) 1280x720 (16:9) 50fps ~4000kbps (crf=18, preset - medium)
Аудио: AC3 48000Hz stereo 192kbps
GeneralUnique ID : 183461098949555245124873782838875473746 (0x8A0552897168BAD250407C5280914752)Complete name : Y:\НТ\04 - 2018 Australian Open\2018 ITTF World Tour Platinum Australian Open Finals EUROSPORT HD. Злобный.mkvFormat : MatroskaFormat version : Version 4 / Version 2File size : 1.45 GiBDuration : 45 min 27 sOverall bit rate : 4 554 kb/sWriting application : XviD4PSP 7.0.455 DAILYWriting library : Lavf57.71.100ErrorDetectionType : Per level 1ENCODING_INFO : MPEGTS > MKV / H264 > X264 CRF 18.0 Medium / MP2 > AC3 CBR 192kbps / MP2 > AC3 CBR 192kbps

VideoID : 1Format : AVCFormat/Info : Advanced Video CodecFormat profile : High@L4.1Format settings, CABAC : YesFormat settings, RefFrames : 4 framesCodec ID : V_MPEG4/ISO/AVCDuration : 45 min 27 sBit rate : 4 079 kb/sWidth : 1 280 pixelsHeight : 720 pixelsDisplay aspect ratio : 16:9Frame rate mode : ConstantFrame rate : 50.000 FPSColor space : YUVChroma subsampling : 4:2:0Bit depth : 8 bitsScan type : ProgressiveBits/(Pixel*Frame) : 0.089Stream size : 1.30 GiB (90%)Writing library : x264 core 155 r2901M 7d0ff22Encoding settings : cabac=1 / ref=3 / deblock=1:-3:-3 / analyse=0x3:0x113 / me=hex / subme=7 / psy=1 / psy_rd=1.00:0.00 / mixed_ref=1 / me_range=16 / chroma_me=1 / trellis=1 / 8x8dct=1 / cqm=0 / deadzone=21,11 / fast_pskip=1 / chroma_qp_offset=-2 / threads=5 / lookahead_threads=1 / sliced_threads=0 / nr=0 / decimate=1 / interlaced=0 / bluray_compat=0 / constrained_intra=0 / bframes=3 / b_pyramid=2 / b_adapt=1 / b_bias=0 / direct=1 / weightb=1 / open_gop=0 / weightp=2 / keyint=500 / keyint_min=50 / scenecut=40 / intra_refresh=0 / rc_lookahead=40 / rc=crf / mbtree=1 / crf=18.0 / qcomp=0.60 / qpmin=0 / qpmax=69 / qpstep=4 / ip_ratio=1.40 / aq=1:1.00Default : YesForced : NoColor range : LimitedColor primaries : BT.709Transfer characteristics : BT.709Matrix coefficients : BT.709

Audio #1ID : 2Format : AC-3Format/Info : Audio Coding 3Format settings, Endianness : BigCodec ID : A_AC3Duration : 45 min 27 sBit rate mode : ConstantBit rate : 192 kb/sChannel(s) : 2 channelsChannel positions : Front: L RSampling rate : 48.0 kHzFrame rate : 31.250 FPS (1536 SPF)Bit depth : 16 bitsCompression mode : LossyStream size : 62.4 MiB (4%)Language : RussianService kind : Complete MainDefault : YesForced : No

Audio #2ID : 3Format : AC-3Format/Info : Audio Coding 3Format settings, Endianness : BigCodec ID : A_AC3Duration : 45 min 27 sBit rate mode : ConstantBit rate : 192 kb/sChannel(s) : 2 channelsChannel positions : Front: L RSampling rate : 48.0 kHzFrame rate : 31.250 FPS (1536 SPF)Bit depth : 16 bitsCompression mode : LossyStream size : 62.4 MiB (4%)Language : EnglishService kind : Complete MainDefault : NoForced : No
ЖЕНЩИНЫ. ПАРЫ. ФИНАЛ
HAYATA Hina, ITO Mima JPN - HASHIMOTO Honoka, SATO Hitomi JPN

МУЖЧИНЫ. ПАРЫ. ФИНАЛ
JEOUNG Youngsik, LEE Sangsu KOR - MORIZONO Masataka, OSHIMA Yuya JPN

ЖЕНЩИНЫ. ФИНАЛ
DING Ning CHN - LIU Shiwen CHN

МУЖЧИНЫ. ФИНАЛ
LIU Dingshuo CHN - XU Xin CHN
00:45:27
ЖЕНЩИНЫ. ПАРЫ. ФИНАЛ
HAYATA Hina, ITO Mima JPN - HASHIMOTO Honoka, SATO Hitomi JPN
(3-0) 11:8, 11:9, 11:7

МУЖЧИНЫ. ПАРЫ. ФИНАЛ
JEOUNG Youngsik, LEE Sangsu KOR - MORIZONO Masataka, OSHIMA Yuya JPN
(3-0) 14:12, 11:5, 11:7

ЖЕНЩИНЫ. ФИНАЛ
DING Ning CHN - LIU Shiwen CHN
(3-4) 5:11, 7:11, 11:3, 11:5, 11:6, 5:11, 6:11

МУЖЧИНЫ. ФИНАЛ
LIU Dingshuo CHN - XU Xin CHN
(1-4) 10:12, 11:4, 10:12, 13:15, 6:11


Трекер:  [ 31-Июл-2018 20:12 ]

  

Скачать .torrent

Размер .torrent файла 15 KB


Размер: 1.45 GB
Хэш (hash) релиза: 55d45bf24e899abe744cba7e8c4239ceb9b0c7ee
Подписка на обновления:

Торренты, похожие на 2018 ITTF World Tour Platinum Australian Open Финалы скачать торрент

Форум Название Автор Размер S L Добавлен
Спорт ·%· 2018 ITTF World Tour Platinum Australian Open / Финалы / Eurosport 1 HD [30.07.2018, Настольный теннис, HDTV/1080i, TS/H.264, RU/EN] Galfimbul 34882773963.25 GB 0 0 1533051736

18:42

31-Июл-18

Еще никто не оставлял запись к записи скачать торрент 2018 ITTF World Tour Platinum Australian Open Финалы . Будь первым!

!Обратная связь