Скачать через торрент музыку бесплатно без регистрации torrent

Статистика раздачи
Размер:  320 MB   |    Зарегистрирован:  4 месяца 14 дней   |    .torrent скачан:  58 раз   |   
Раздают:  1  
   
загрузка...
 
Автор Сообщение

Galfimbul

avatar Galfimbul


Elektric Music / Esperanto

Жанр: Synth-pop
Носитель: CD
Год издания: 1993
Издатель (лейбл): Atlantic
Номер по каталогу: 82604-2
Аудиокодек: FLAC (*.flac)
Тип рипа: tracks+.cue
Битрейт аудио: lossless
Продолжительность: 43:41
Источник (релизер): обмен
Наличие сканов в содержимом раздачи: да
Треклист:

01. Elektric Music - TV (5:45)
02. Elektric Music - Show Business (3:23)
03. Elektric Music - Kissing The Machine (5:10)
04. Elektric Music - Lifestyle (4:49)
05. Elektric Music - Crosstalk (5:51)
06. Elektric Music - Information (8:34)
07. Elektric Music - Esperanto (4:45)
08. Elektric Music - Overdrive (5:24)
Exact Audio Copy V1.0 beta 3 from 29. August 2011

EAC extraction logfile from 26. November 2015, 15:27

Elektric Music / Esperanto

Used drive : ASUS DRW-20B1LT Adapter: 2 ID: 0

Read mode : SecureUtilize accurate stream : YesDefeat audio cache : YesMake use of C2 pointers : No

Read offset correction : 6Overread into Lead-In and Lead-Out : NoFill up missing offset samples with silence : YesDelete leading and trailing silent blocks : NoNull samples used in CRC calculations : YesUsed interface : Native Win32 interface for Win NT & 2000Gap handling : Appended to previous track

Used output format : User Defined EncoderSelected bitrate : 896 kBit/sQuality : HighAdd ID3 tag : NoCommand line compressor : C:\Program Files\Exact Audio Copy\Flac\flac.exeAdditional command line options : -8 -V -T "ARTIST=%artist%" -T "TITLE=%title%" -T "ALBUM=%albumtitle%" -T "DATE=%year%" -T "TRACKNUMBER=%tracknr%" -T "GENRE=%genre%" -T "COMMENT=EAC FLAC -8" %source%

TOC of the extracted CD

Track | Start | Length | Start sector | End sector --------------------------------------------------------- 1 | 0:00.32 | 5:44.65 | 32 | 25896 2 | 5:45.22 | 3:23.10 | 25897 | 41131 3 | 9:08.32 | 5:09.58 | 41132 | 64364 4 | 14:18.15 | 4:49.30 | 64365 | 86069 5 | 19:07.45 | 5:51.00 | 86070 | 112394 6 | 24:58.45 | 8:34.07 | 112395 | 150951 7 | 33:32.52 | 4:44.38 | 150952 | 172289 8 | 38:17.15 | 5:23.62 | 172290 | 196576

Track 1

Filename M:\EACrips\Elektric Music - Esperanto\01 - TV.wav

Pre-gap length 0:00:02.32

Peak level 100.0 % Extraction speed 3.1 X Track quality 100.0 % Test CRC 63330916 Copy CRC 63330916 Accurately ripped (confidence 3) [FE5EFAA7] (AR v2) Copy OK

Track 2

Filename M:\EACrips\Elektric Music - Esperanto\02 - Show Business.wav

Pre-gap length 0:00:00.03

Peak level 100.0 % Extraction speed 3.1 X Track quality 100.0 % Test CRC E3833D89 Copy CRC E3833D89 Accurately ripped (confidence 3) [4A71F4A6] (AR v2) Copy OK

Track 3

Filename M:\EACrips\Elektric Music - Esperanto\03 - Kissing The Machine.wav

Pre-gap length 0:00:02.35

Peak level 99.3 % Extraction speed 3.0 X Track quality 99.9 % Test CRC 41247F7D Copy CRC 41247F7D Accurately ripped (confidence 3) [5099B2FC] (AR v2) Copy OK

Track 4

Filename M:\EACrips\Elektric Music - Esperanto\04 - Lifestyle.wav

Pre-gap length 0:00:04.08

Peak level 100.0 % Extraction speed 3.9 X Track quality 100.0 % Test CRC 8A7CCF60 Copy CRC 8A7CCF60 Accurately ripped (confidence 3) [0C3E57F5] (AR v2) Copy OK

Track 5

Filename M:\EACrips\Elektric Music - Esperanto\05 - Crosstalk.wav

Pre-gap length 0:00:02.31

Peak level 100.0 % Extraction speed 4.3 X Track quality 100.0 % Test CRC FB8BAF55 Copy CRC FB8BAF55 Accurately ripped (confidence 3) [200DE590] (AR v2) Copy OK

Track 6

Filename M:\EACrips\Elektric Music - Esperanto\06 - Information.wav

Pre-gap length 0:00:00.03

Peak level 100.0 % Extraction speed 4.8 X Track quality 100.0 % Test CRC 63448C2E Copy CRC 63448C2E Accurately ripped (confidence 3) [1C0268AC] (AR v2) Copy OK

Track 7

Filename M:\EACrips\Elektric Music - Esperanto\07 - Esperanto.wav

Pre-gap length 0:00:00.38

Peak level 100.0 % Extraction speed 4.0 X Track quality 99.9 % Test CRC 1EE51668 Copy CRC 1EE51668 Accurately ripped (confidence 3) [7FC96E4A] (AR v2) Copy OK

Track 8

Filename M:\EACrips\Elektric Music - Esperanto\08 - Overdrive.wav

Pre-gap length 0:00:01.43

Peak level 100.0 % Extraction speed 5.2 X Track quality 100.0 % Test CRC 803FB76A Copy CRC 803FB76A Accurately ripped (confidence 3) [80487D29] (AR v2) Copy OK

All tracks accurately ripped

No errors occurred

End of status report

==== Log checksum 7D03CD4D095461325D4A003059F0C2DCACA8F3D384C24B48CC218FC36EB595D0 ====
REM GENRE ElectronicREM DATE 1993REM DISCID 5A0A3D08REM COMMENT "ExactAudioCopy v1.0b3"PERFORMER "Elektric Music"TITLE "Esperanto"FILE "01 - TV.wav" WAVE TRACK 01 AUDIO TITLE "TV" PERFORMER "Elektric Music" PREGAP 00:00:32 INDEX 01 00:00:00 TRACK 02 AUDIO TITLE "Show Business" PERFORMER "Elektric Music" INDEX 00 05:44:62FILE "02 - Show Business.wav" WAVE INDEX 01 00:00:00 TRACK 03 AUDIO TITLE "Kissing The Machine" PERFORMER "Elektric Music" INDEX 00 03:20:50FILE "03 - Kissing The Machine.wav" WAVE INDEX 01 00:00:00 TRACK 04 AUDIO TITLE "Lifestyle" PERFORMER "Elektric Music" INDEX 00 05:05:50FILE "04 - Lifestyle.wav" WAVE INDEX 01 00:00:00 TRACK 05 AUDIO TITLE "Crosstalk" PERFORMER "Elektric Music" INDEX 00 04:46:74FILE "05 - Crosstalk.wav" WAVE INDEX 01 00:00:00 TRACK 06 AUDIO TITLE "Information" PERFORMER "Elektric Music" INDEX 00 05:50:72FILE "06 - Information.wav" WAVE INDEX 01 00:00:00 TRACK 07 AUDIO TITLE "Esperanto" PERFORMER "Elektric Music" INDEX 00 08:33:44FILE "07 - Esperanto.wav" WAVE INDEX 01 00:00:00 TRACK 08 AUDIO TITLE "Overdrive" PERFORMER "Elektric Music" INDEX 00 04:42:70FILE "08 - Overdrive.wav" WAVE INDEX 01 00:00:00


Трекер:  [ 31-Июл-2018 21:01 ]

  

Скачать .torrent

Размер .torrent файла 13 KB


Размер: 320 MB
Хэш (hash) релиза: 3d3d740bfe2682a321cd7a01e829490f30296df4

Еще никто не оставлял запись к записи скачать торрент . Будь первым!

!Обратная связь