Скачать через торрент Мотор-сити Моторсити Фильм бесплатно в хорошем качестве torrent

Скачивайте на UnionPeer.org фильмы через торрент без регистрации. Новинки кино в хорошем качестве через торрент. На UnionPeer.org можно скачать через торрент фильмы 2014 и 2015 годов. Самые новые фильмы.

Скачать торрент Мотор-сити Моторсити бесплатно через .torrent фильм мультфильм сериал

Статистика раздачи
Размер:  17.05 GB   |    Зарегистрирован:  4 месяца 12 дней   |    .torrent скачан:  42 раза   |   
Раздают:  1  
   
загрузка...
 
Автор Сообщение

Galfimbul

avatar Galfimbul


Мотор-сити / Моторсити / Motorcity

Страна: США
Жанр: экшн, приключения, гонки
Продолжительность серии: 20 x ~ 00:21:00
Год выпуска: 2012-2013
Перевод: Профессиональный (дублированный) Студия «Кириллица» по заказу Disney Russia

Режиссёр: Крис Приноски / Chris Prynoski, Джуно Джон Ли / Juno John Lee
Роли озвучивали: Рейд Скотт, Кейт Микуччи, Нейт Торренс, Джесс Харнелл, Кел Митчел, Марк Хэмилл, Джим Брюэр, Дэна Дэвис, Брайан Дойл-Мюррей, Ди Снайдер, Карлос Алазраки, Эрик Ладин, Джессика Ди Чикко, Айми Гарсиа

Описание: Детройтом овладел злобный миллионер Абрахам Кейн. Подавляя свободы граждан и запрещая передвижение на автомобилях, Кейн сталкивается с препятствием: бандой бунтарей во главе с Майком Чилтоном, именуемых себя "Горящими". Они восстают, чтобы остановить Кейна от завоевания последнего пристанища свободы - подземного города Моторсити



Качество: WEB-DL 1080p
Формат: MKV
Видео: MPEG-4 AVC, 1916x1076 [16:9], 23.976 fps, ~ 4500 Kbps
Аудио 1: [Русский] AC3, 48 kHz, 2 ch, 192 Kbps
Аудио 2: [Английский] АС3, 48 kHz, 6 ch, 384 Kbps
Субтитры: Английские (full)
Релиз TeamHD - BenderBEST
• Благодарим за более качественный записи дубляжа Hanway
• Работа со звуком - BenderBEST
01. Битва за Мотор-сити / Battle for Motorcity
02. Упоение властью / Power Trip
03. Обуздать молнию / Ride the Lightning
04. Техассофицируй! / Texas-ify It
05. Герцог Детройта / The Duke of Detroit
06. Вендетта / Vendetta
07. Белокурый гром / Blonde Thunder
08. Датч в действии / Going Dutch
09. Езда воображаемых фургонов / Ride of the Fantasy Vans
10. Герцог Детройта представляет... / The Duke of Detroit Presents...
11. Готовая одежда / Off the Rack
12. Бесстрашный / Fearless
13. Ночь Беспредела / Mayhem Night
14. Яблоко от яблони / Like Father, Like Daughter
15. Воссоединение / Reunion
16. Джули и Амазонки / Julie and the Amazons
17. Робо-сбор / The Robo-Roundup
18. Уровень угрозы: Техас! / Threat Level: Texas!
19. Вега / Vega
20. Светлое будущее / A Better Tomorrow
ОбщееУникальный идентификатор : 217580921117041496699744176284672350018 (0xA3B08FA642666138AFE8D929CF365742)Полное имя : S:\Motorcity.S01.1080p.WEB-DL.Rus.Eng_THD\Motorcity.S01E01.Battle.for.Motorcity.1080p.WEB-DL.Rus.Eng_THD.mkvФормат : MatroskaВерсия формата : Version 4 / Version 2Размер файла : 831 МбайтПродолжительность : 22 м.Общий поток : 5122 Кбит/секНазвание фильма : Motorcity S01E01 - ReJliz TeamHD by BenderBESTДата кодирования : UTC 2018-07-30 09:59:06Программа кодирования : mkvmerge v6.9.1 ('Blue Panther') 32bit built on Apr 18 2014 18:15:44Библиотека кодирования : libebml v1.3.0 + libmatroska v1.4.1

ВидеоИдентификатор : 1Формат : AVCФормат/Информация : Advanced Video CodecПрофиль формата : High@L4Параметр CABAC формата : ДаПараметр ReFrames формата : 4 кадраИдентификатор кодека : V_MPEG4/ISO/AVCПродолжительность : 22 м.Битрейт : 4445 Кбит/секШирина : 1916 пикселейВысота : 1076 пикселейСоотношение сторон : 16:9Режим частоты кадров : ПостоянныйЧастота кадров : 23,976 кадра/секЦветовое пространство : YUVСубдискретизация насыщенности : 4:2:0Битовая глубина : 8 битТип развёртки : ПрогрессивнаяБит/(Пиксели*Кадры) : 0.090Размер потока : 721 Мбайт (87%)Язык : EnglishDefault : ДаForced : ДаЦветовой диапазон : LimitedОсновные цвета : BT.709Характеристики трансфера : BT.709Коэффициенты матрицы : BT.709

Аудио #1Идентификатор : 2Формат : AC-3Формат/Информация : Audio Coding 3Расширение режима : CM (complete main)Параметр Endianness формата : BigИдентификатор кодека : A_AC3Продолжительность : 22 м.Вид битрейта : ПостоянныйБитрейт : 192 Кбит/секКаналы : 2 каналаРасположение каналов : Front: L RЧастота : 48,0 КГцЧастота кадров : 31,250 кадров/сек (1536 spf)Метод сжатия : С потерямиРазмер потока : 31,1 Мбайт (4%)Заголовок : AC3 2.0 @ 192 kbps - DUB, Disney / КириллицаЯзык : RussianDefault : ДаForced : Да

Аудио #2Идентификатор : 3Формат : AC-3Формат/Информация : Audio Coding 3Расширение режима : CM (complete main)Параметр Endianness формата : BigИдентификатор кодека : A_AC3Продолжительность : 22 м.Вид битрейта : ПостоянныйБитрейт : 384 Кбит/секКаналы : 6 каналовРасположение каналов : Front: L C R, Side: L R, LFEЧастота : 48,0 КГцЧастота кадров : 31,250 кадров/сек (1536 spf)Метод сжатия : С потерямиРазмер потока : 62,3 Мбайт (7%)Заголовок : AC3 5.1 @ 384 kbpsЯзык : EnglishDefault : НетForced : Нет

ТекстИдентификатор : 4Формат : UTF-8Идентификатор кодека : S_TEXT/UTF8Идентификатор кодека/Информация : UTF-8 Plain TextЯзык : EnglishDefault : НетForced : Нет


Трекер:  [ 31-Июл-2018 22:24 ]

  

Скачать .torrent

Размер .torrent файла 87 KB


Размер: 17.05 GB
Хэш (hash) релиза: dea0f3dd89ac161faa67ed33494bf11788c5d503
Подписка на обновления:

Торренты, похожие на Мотор-сити Моторсити скачать торрент

Форум Название Автор Размер S L Добавлен
Мультсериалы ·· Мотор-сити / Моторсити / Motorcity / Сезон: 1 / Серии: 1-20 из 20 (Крис Приноски / Chris Prynoski, Джуно Джон Ли / Juno John Lee) [2012-2013, экшн, приключения, гонки, WEB-DL 720p] DUB (Кириллица) + Original Eng + Sub Eng Galfimbul 1524126438014.19 GB 0 0 1483204992

20:23

31-Дек-16

Еще никто не оставлял запись к записи скачать торрент Мотор-сити Моторсити . Будь первым!

!Обратная связь