Скачать через торрент музыку бесплатно без регистрации torrent

Статистика раздачи
Размер:  1.24 GB   |    Зарегистрирован:  4 месяца 15 дней   |    .torrent скачан:  57 раз   |   
Раздают:  1  
   
загрузка...
 
Автор Сообщение

Galfimbul

avatar Galfimbul


An Anthology of Noise & Electronic Music / Seventh And Last A-Chronology 1930-20
Жанр: Avant-Garde, Electroacoustic, Experimental, Noise
Носитель: CD
Год издания: 2013
Издатель (лейбл): Sub Rosa
Номер по каталогу: SR300
Аудиокодек: FLAC (*.flac)
Тип рипа: tracks+.cue
Битрейт аудио: lossless
Продолжительность: 03:56:24
Источник (релизер): Apollo
Наличие сканов в содержимом раздачи: нет

CD1
1-1 –Henry Jacobs Sonata For Loudspeakers 9:22
1-2 –Dziga Vertov Radio Pravda 2:58
1-3 –Bebe & Louis Barron* Bells Of Atlantis 9:02
1-4 –Luciano Berio Thema (Omaggio A Joyce) 6:14
1-5 –Bülent Arel Electronic Music 8:39
1-6 –Don Preston Analog Heaven #6 3:06
1-7 –Slawek Kwi* + Siobhan McDonald Lava Samples 2:04
1-8 –Benjamin Thigpen Thread0 5:26
1-9 –Helmut Schäfer Infuse 7:38
1-10 –Thanasis Kaproulias / Novi_sad The Insolence Of A Poppy 13:24
1-11 –Saule Paperfilm 11:23
1-12 –Édouard-Léon Scott de Martinville Au Clair De La Lune 0:16

CD2
2-1 –John Oswald Vertical Time 10:00
2-2 –Israël Quellet Pour Percussion Et Saturation 2:23
2-3 –Dennis Wong / Sin:Net* Decomposition 5:04
2-4 –Alan Courtis* Mind Broncoespasmo 2:37
2-5 –Fausto Romitelli Trash TV Trance 10:11
2-6 –Justin K. Broadrick* Guitar Three 10:23
2-7 –Storm Bugs Cash Wash / Eat Good Beans 3:42
2-8 –E.A.R.* Beyond The Pale 14:51
2-9 –Henry Cow From Trondheim 13:07
2-10 –Osso Exótico Rota De Inverno 4:45

CD3
3-1 –Eugeniusz Rudnik Collage 5:00
3-2 –Eduardo Polonio Transparencias 7:09
3-3 –Cabaret Voltaire Chance Versus Causality 5:49
3-4 –Mika Vainio Transformer In 7 5:58
3-5 –Alma Laprida + Juan Jose Calarco* Contorso 2:38
3-6 –Klangkrieg Korpus 1 3:38
3-7 –Gintas Kraptavicius* 4m 7:21
3-8 –Warong Rachapreecha Shambles 0:55
3-9 –The New Blockaders Blockade Is Resistance 8:13
3-10 –GX Jupitter-Larsen / The Haters Fuechen 5:22
3-11 –The Rita Skate 5:01
3-12 –To Die Terhempas Luka / Jurang Nestapa 1:05
3-13 –Agro / Brandon Spivey + Richie Anderson Only Those Who Attempt
 The Impossible Will Achieve The Absurd 4:10
3-14 –Jamka Wild Rose Tree 5:50
3-15 –Erin Sexton Suspend / 2 Electromagnetic Amplifiers 4:53
3-16 –Gustavo Serpa* Astro Metal 6:06
3-17 –Unknown Artist Untitled (Unknown) 0:23

Notes
Released in a three-tray, eight-panel Digipak. Includes an 84-page booklet of critical and biographical notes.

Iconography: drawings for the construction of the Philips Pavilion, Brussels, 1958.
<div class="sp-wrap">
<div class="sp-head folded">CD1</div>
<div class="sp-body">

Exact Audio Copy V1.0 beta 3 from 29. August 2011

EAC extraction logfile from 22. October 2014, 12:22

Various Artists / An Anthology of Noise & Electronic Music: Seventh and Last A-Chronology 1930-2012

Used drive : HL-DT-STDVDRAM GSA-U10N Adapter: 0 ID: 0

Read mode : SecureUtilize accurate stream : YesDefeat audio cache : YesMake use of C2 pointers : No

Read offset correction : 667Overread into Lead-In and Lead-Out : NoFill up missing offset samples with silence : YesDelete leading and trailing silent blocks : NoNull samples used in CRC calculations : YesUsed interface : Native Win32 interface for Win NT & 2000Gap handling : Appended to previous track

Used output format : User Defined EncoderSelected bitrate : 1024 kBit/sQuality : HighAdd ID3 tag : NoCommand line compressor : C:\Program Files (x86)\Exact Audio Copy\Flac\flac.exeAdditional command line options : -8 -V -T "ARTIST=%artist%" -T "TITLE=%title%" -T "ALBUM=%albumtitle%" -T "DATE=%year%" -T "TRACKNUMBER=%tracknr%" -T "GENRE=%genre%" -T "PERFORMER=%albuminterpret%" -T "COMPOSER=%composer%" %haslyrics%--tag-from-file=LYRICS="%lyricsfile%"%haslyrics% -T "ALBUMARTIST=%albumartist%" -T "DISCNUMBER=%cdnumber%" -T "TOTALDISCS=%totalcds%" -T "TOTALTRACKS=%numtracks%" -T "COMMENT=%comment%" %source% -o %dest%

TOC of the extracted CD

Track | Start | Length | Start sector | End sector --------------------------------------------------------- 1 | 0:00.00 | 9:22.17 | 0 | 42166 2 | 9:22.17 | 2:58.74 | 42167 | 55590 3 | 12:21.16 | 9:02.29 | 55591 | 96269 4 | 21:23.45 | 6:14.35 | 96270 | 124354 5 | 27:38.05 | 8:39.42 | 124355 | 163321 6 | 36:17.47 | 3:06.04 | 163322 | 177275 7 | 39:23.51 | 2:04.27 | 177276 | 186602 8 | 41:28.03 | 5:26.66 | 186603 | 211118 9 | 46:54.69 | 7:38.66 | 211119 | 245534 10 | 54:33.60 | 13:24.72 | 245535 | 305906 11 | 67:58.57 | 11:23.33 | 305907 | 357164 12 | 79:22.15 | 0:16.52 | 357165 | 358416

Track 1

Filename C:\Staging\Anthology of Noise & Electronic Music_ Seventh and Last A-Chronolgy 1930-2012\1\01 - Henry Jacobs - Sonata for Loudspeakers.wav

Pre-gap length 0:00:02.00

Peak level 97.7 % Extraction speed 1.5 X Track quality 100.0 % Test CRC 05511C02 Copy CRC 05511C02 Accurately ripped (confidence 4) [5E6BD7CF] (AR v2) Copy OK

Track 2

Filename C:\Staging\Anthology of Noise & Electronic Music_ Seventh and Last A-Chronolgy 1930-2012\1\02 - Dziga Vertov - Radio Pravda.wav

Pre-gap length 0:00:02.00

Peak level 97.7 % Extraction speed 1.5 X Track quality 100.0 % Test CRC 83FEE9A6 Copy CRC 83FEE9A6 Accurately ripped (confidence 4) [9B1A1D01] (AR v2) Copy OK

Track 3

Filename C:\Staging\Anthology of Noise & Electronic Music_ Seventh and Last A-Chronolgy 1930-2012\1\03 - Bebe & Louis Barron - Bells of Atlantis.wav

Pre-gap length 0:00:01.70

Peak level 79.3 % Extraction speed 1.9 X Track quality 100.0 % Test CRC 0F1616B0 Copy CRC 0F1616B0 Accurately ripped (confidence 4) [6551D06F] (AR v2) Copy OK

Track 4

Filename C:\Staging\Anthology of Noise & Electronic Music_ Seventh and Last A-Chronolgy 1930-2012\1\04 - Luciano Berio - Thema (Omaggio a Joyce).wav

Pre-gap length 0:00:02.00

Peak level 97.7 % Extraction speed 1.8 X Track quality 99.9 % Test CRC F14B1340 Copy CRC F14B1340 Accurately ripped (confidence 4) [FB53924F] (AR v2) Copy OK

Track 5

Filename C:\Staging\Anthology of Noise & Electronic Music_ Seventh and Last A-Chronolgy 1930-2012\1\05 - Bülent Arel - Electronic Music.wav

Pre-gap length 0:00:02.00

Peak level 97.7 % Extraction speed 2.1 X Track quality 99.9 % Test CRC F59C5937 Copy CRC F59C5937 Accurately ripped (confidence 4) [86AD488A] (AR v2) Copy OK

Track 6

Filename C:\Staging\Anthology of Noise & Electronic Music_ Seventh and Last A-Chronolgy 1930-2012\1\06 - Don Preston - Analog Heaven #6.wav

Pre-gap length 0:00:01.66

Peak level 97.7 % Extraction speed 2.1 X Track quality 100.0 % Test CRC B13584FE Copy CRC B13584FE Accurately ripped (confidence 4) [2BD9BC38] (AR v2) Copy OK

Track 7

Filename C:\Staging\Anthology of Noise & Electronic Music_ Seventh and Last A-Chronolgy 1930-2012\1\07 - Slavek Kwi + Siobhán McDonald - Lava Samples.wav

Pre-gap length 0:00:02.00

Peak level 93.4 % Extraction speed 2.0 X Track quality 100.0 % Test CRC C2D74CF7 Copy CRC C2D74CF7 Accurately ripped (confidence 4) [74666C94] (AR v2) Copy OK

Track 8

Filename C:\Staging\Anthology of Noise & Electronic Music_ Seventh and Last A-Chronolgy 1930-2012\1\08 - Benjamin Thigpen - Thread0.wav

Pre-gap length 0:00:02.00

Peak level 97.7 % Extraction speed 2.4 X Track quality 100.0 % Test CRC AE6B1D99 Copy CRC AE6B1D99 Accurately ripped (confidence 4) [DF2B50CD] (AR v2) Copy OK

Track 9

Filename C:\Staging\Anthology of Noise & Electronic Music_ Seventh and Last A-Chronolgy 1930-2012\1\09 - Helmut Schafer - Infuse.wav

Pre-gap length 0:00:02.00

Peak level 62.1 % Extraction speed 2.6 X Track quality 100.0 % Test CRC 22C4018B Copy CRC 22C4018B Accurately ripped (confidence 4) [E7A84875] (AR v2) Copy OK

Track 10

Filename C:\Staging\Anthology of Noise & Electronic Music_ Seventh and Last A-Chronolgy 1930-2012\1\10 - Thanasis Kaproulias , Nova_sad - The Insolence of a Poppy.wav

Pre-gap length 0:00:02.00

Peak level 97.7 % Extraction speed 2.9 X Track quality 100.0 % Test CRC 3D135989 Copy CRC 3D135989 Accurately ripped (confidence 4) [7C6FDAA5] (AR v2) Copy OK

Track 11

Filename C:\Staging\Anthology of Noise & Electronic Music_ Seventh and Last A-Chronolgy 1930-2012\1\11 - Saule - Paperfilm.wav

Pre-gap length 0:00:02.00

Peak level 95.5 % Extraction speed 3.0 X Track quality 100.0 % Test CRC DC2443E4 Copy CRC DC2443E4 Accurately ripped (confidence 4) [DDAFEB75] (AR v2) Copy OK

Track 12

Filename C:\Staging\Anthology of Noise & Electronic Music_ Seventh and Last A-Chronolgy 1930-2012\1\12 - Édouard-Léon Scott de Martinville - Au clair de la lune.wav

Pre-gap length 0:00:01.40

Peak level 54.7 % Extraction speed 1.0 X Track quality 100.0 % Test CRC A7583CCD Copy CRC A7583CCD Accurately ripped (confidence 4) [9ADE9EFB] (AR v2) Copy OK

All tracks accurately ripped

No errors occurred

End of status report

---- CUETools DB Plugin V2.1.3

[CTDB TOCID: cJ7N3UG4IfjZWlX_ybgWwRHUIwA-] found, Submit result: cJ7N3UG4IfjZWlX_ybgWwRHUIwA- has been confirmed[30dabb46] (1/1) Accurately ripped

==== Log checksum E1208DC552BB3A941A15E637EE0034C3EF167515BBC5DBD71978D6938CF46923 ====
Exact Audio Copy V1.0 beta 3 from 29. August 2011

EAC extraction logfile from 22. October 2014, 13:07

Various Artists / An Anthology of Noise & Electronic Music: Seventh and Last A-Chronology 1930-2012

Used drive : HL-DT-STDVDRAM GSA-U10N Adapter: 0 ID: 0

Read mode : SecureUtilize accurate stream : YesDefeat audio cache : YesMake use of C2 pointers : No

Read offset correction : 667Overread into Lead-In and Lead-Out : NoFill up missing offset samples with silence : YesDelete leading and trailing silent blocks : NoNull samples used in CRC calculations : YesUsed interface : Native Win32 interface for Win NT & 2000Gap handling : Appended to previous track

Used output format : User Defined EncoderSelected bitrate : 1024 kBit/sQuality : HighAdd ID3 tag : NoCommand line compressor : C:\Program Files (x86)\Exact Audio Copy\Flac\flac.exeAdditional command line options : -8 -V -T "ARTIST=%artist%" -T "TITLE=%title%" -T "ALBUM=%albumtitle%" -T "DATE=%year%" -T "TRACKNUMBER=%tracknr%" -T "GENRE=%genre%" -T "PERFORMER=%albuminterpret%" -T "COMPOSER=%composer%" %haslyrics%--tag-from-file=LYRICS="%lyricsfile%"%haslyrics% -T "ALBUMARTIST=%albumartist%" -T "DISCNUMBER=%cdnumber%" -T "TOTALDISCS=%totalcds%" -T "TOTALTRACKS=%numtracks%" -T "COMMENT=%comment%" %source% -o %dest%

TOC of the extracted CD

Track | Start | Length | Start sector | End sector --------------------------------------------------------- 1 | 0:00.00 | 10:00.05 | 0 | 45004 2 | 10:00.05 | 2:23.54 | 45005 | 55783 3 | 12:23.59 | 5:04.42 | 55784 | 78625 4 | 17:28.26 | 2:37.10 | 78626 | 90410 5 | 20:05.36 | 10:11.64 | 90411 | 136299 6 | 30:17.25 | 10:23.02 | 136300 | 183026 7 | 40:40.27 | 3:42.28 | 183027 | 199704 8 | 44:22.55 | 14:51.16 | 199705 | 266545 9 | 59:13.71 | 13:07.72 | 266546 | 325642 10 | 72:21.68 | 4:45.29 | 325643 | 347046

Track 1

Filename C:\Staging\Anthology of Noise & Electronic Music_ Seventh and Last A-Chronolgy 1930-2012\2\01 - John Oswald - Vertical Time.wav

Pre-gap length 0:00:02.00

Peak level 97.7 % Extraction speed 2.8 X Track quality 100.0 % Test CRC 8376D00B Copy CRC 8376D00B Accurately ripped (confidence 4) [45418617] (AR v2) Copy OK

Track 2

Filename C:\Staging\Anthology of Noise & Electronic Music_ Seventh and Last A-Chronolgy 1930-2012\2\02 - Israël Quellet - Pour percussions et saturation.wav

Pre-gap length 0:00:02.00

Peak level 69.4 % Extraction speed 2.2 X Track quality 99.9 % Test CRC B8F353D2 Copy CRC B8F353D2 Accurately ripped (confidence 4) [BC0BE01B] (AR v2) Copy OK

Track 3

Filename C:\Staging\Anthology of Noise & Electronic Music_ Seventh and Last A-Chronolgy 1930-2012\2\03 - Dennis Wong , Sin-Ned - Decomposition.wav

Pre-gap length 0:00:01.82

Peak level 73.0 % Extraction speed 3.2 X Track quality 100.0 % Test CRC 18342136 Copy CRC 18342136 Accurately ripped (confidence 4) [0777B303] (AR v2) Copy OK

Track 4

Filename C:\Staging\Anthology of Noise & Electronic Music_ Seventh and Last A-Chronolgy 1930-2012\2\04 - Alan Courtis - Mind Broncoespasmo.wav

Pre-gap length 0:00:01.00

Peak level 97.7 % Extraction speed 3.1 X Track quality 100.0 % Test CRC 2DDE54D2 Copy CRC 2DDE54D2 Accurately ripped (confidence 4) [00CA9E07] (AR v2) Copy OK

Track 5

Filename C:\Staging\Anthology of Noise & Electronic Music_ Seventh and Last A-Chronolgy 1930-2012\2\05 - Fausto Romitelli - Trash TV Trance.wav

Pre-gap length 0:00:00.26

Peak level 96.6 % Extraction speed 3.7 X Track quality 99.9 % Test CRC D0742C7A Copy CRC D0742C7A Accurately ripped (confidence 4) [8AB1332E] (AR v2) Copy OK

Track 6

Filename C:\Staging\Anthology of Noise & Electronic Music_ Seventh and Last A-Chronolgy 1930-2012\2\06 - Justin K. Broadrick - Guitar Three.wav

Pre-gap length 0:00:02.00

Peak level 95.5 % Extraction speed 4.3 X Track quality 100.0 % Test CRC 98FE67D4 Copy CRC 98FE67D4 Accurately ripped (confidence 4) [EE7EEE7F] (AR v2) Copy OK

Track 7

Filename C:\Staging\Anthology of Noise & Electronic Music_ Seventh and Last A-Chronolgy 1930-2012\2\07 - Storm Bugs - Cash Wash , Eat Good Beans.wav

Pre-gap length 0:00:02.00

Peak level 97.7 % Extraction speed 4.1 X Track quality 100.0 % Test CRC 3BA5DD37 Copy CRC 3BA5DD37 Accurately ripped (confidence 4) [778C2C54] (AR v2) Copy OK

Track 8

Filename C:\Staging\Anthology of Noise & Electronic Music_ Seventh and Last A-Chronolgy 1930-2012\2\08 - E.A.R. - Beyond the Pale.wav

Pre-gap length 0:00:01.00

Peak level 97.7 % Extraction speed 5.0 X Track quality 100.0 % Test CRC C5AE5F50 Copy CRC C5AE5F50 Accurately ripped (confidence 4) [DB7A1BA0] (AR v2) Copy OK

Track 9

Filename C:\Staging\Anthology of Noise & Electronic Music_ Seventh and Last A-Chronolgy 1930-2012\2\09 - Henry Cow - From Trondheim.wav

Pre-gap length 0:00:02.00

Peak level 97.7 % Extraction speed 5.4 X Track quality 100.0 % Test CRC 3C006CD5 Copy CRC 3C006CD5 Accurately ripped (confidence 4) [43D54ADC] (AR v2) Copy OK

Track 10

Filename C:\Staging\Anthology of Noise & Electronic Music_ Seventh and Last A-Chronolgy 1930-2012\2\10 - Osso Exótico - Rota de inverno.wav

Pre-gap length 0:00:01.06

Peak level 77.9 % Extraction speed 5.3 X Track quality 100.0 % Test CRC 00E26DC8 Copy CRC 00E26DC8 Accurately ripped (confidence 4) [8419EE93] (AR v2) Copy OK

All tracks accurately ripped

No errors occurred

End of status report

---- CUETools DB Plugin V2.1.3

[CTDB TOCID: BSqMrekFEzxGYrbI_oh7tbSgnt4-] found, Submit result: BSqMrekFEzxGYrbI_oh7tbSgnt4- has been confirmed[de927b7b] (2/2) Accurately ripped

==== Log checksum C81FE3C7EAFCDA47509AFE606F2EFB85C8EC26A13A429126174057AE4BAE3D4A ====
Exact Audio Copy V1.0 beta 3 from 29. August 2011

EAC extraction logfile from 22. October 2014, 14:33

Various Artists / An Anthology of Noise & Electronic Music: Seventh and Last A-Chronology 1930-2012

Used drive : HL-DT-STDVDRAM GSA-U10N Adapter: 0 ID: 0

Read mode : SecureUtilize accurate stream : YesDefeat audio cache : YesMake use of C2 pointers : No

Read offset correction : 667Overread into Lead-In and Lead-Out : NoFill up missing offset samples with silence : YesDelete leading and trailing silent blocks : NoNull samples used in CRC calculations : YesUsed interface : Native Win32 interface for Win NT & 2000Gap handling : Appended to previous track

Used output format : User Defined EncoderSelected bitrate : 1024 kBit/sQuality : HighAdd ID3 tag : NoCommand line compressor : C:\Program Files (x86)\Exact Audio Copy\Flac\flac.exeAdditional command line options : -8 -V -T "ARTIST=%artist%" -T "TITLE=%title%" -T "ALBUM=%albumtitle%" -T "DATE=%year%" -T "TRACKNUMBER=%tracknr%" -T "GENRE=%genre%" -T "PERFORMER=%albuminterpret%" -T "COMPOSER=%composer%" %haslyrics%--tag-from-file=LYRICS="%lyricsfile%"%haslyrics% -T "ALBUMARTIST=%albumartist%" -T "DISCNUMBER=%cdnumber%" -T "TOTALDISCS=%totalcds%" -T "TOTALTRACKS=%numtracks%" -T "COMMENT=%comment%" %source% -o %dest%

TOC of the extracted CD

Track | Start | Length | Start sector | End sector --------------------------------------------------------- 1 | 0:00.00 | 5:00.45 | 0 | 22544 2 | 5:00.45 | 7:09.74 | 22545 | 54793 3 | 12:10.44 | 5:49.22 | 54794 | 80990 4 | 17:59.66 | 5:58.52 | 80991 | 107892 5 | 23:58.43 | 2:38.41 | 107893 | 119783 6 | 26:37.09 | 3:38.28 | 119784 | 136161 7 | 30:15.37 | 7:21.04 | 136162 | 169240 8 | 37:36.41 | 0:55.47 | 169241 | 173412 9 | 38:32.13 | 8:13.62 | 173413 | 210449 10 | 46:46.00 | 5:22.14 | 210450 | 234613 11 | 52:08.14 | 5:01.13 | 234614 | 257201 12 | 57:09.27 | 1:05.20 | 257202 | 262096 13 | 58:14.47 | 4:10.33 | 262097 | 280879 14 | 62:25.05 | 5:50.09 | 280880 | 307138 15 | 68:15.14 | 4:53.63 | 307139 | 329176 16 | 73:09.02 | 6:06.17 | 329177 | 356643 17 | 79:15.19 | 0:23.00 | 356644 | 358368

Track 1

Filename C:\Staging\Anthology of Noise & Electronic Music_ Seventh and Last A-Chronolgy 1930-2012\3\01 - Eugeniusz Rudnik - Collage.wav

Pre-gap length 0:00:02.00

Peak level 97.7 % Extraction speed 1.3 X Track quality 100.0 % Test CRC 3168AE3F Copy CRC 3168AE3F Accurately ripped (confidence 4) [17245E8A] (AR v2) Copy OK

Track 2

Filename C:\Staging\Anthology of Noise & Electronic Music_ Seventh and Last A-Chronolgy 1930-2012\3\02 - Eduardo Polonio - Transparencias.wav

Pre-gap length 0:00:01.36

Peak level 97.7 % Extraction speed 1.6 X Track quality 100.0 % Test CRC 5AD6155E Copy CRC 5AD6155E Accurately ripped (confidence 4) [C643078F] (AR v2) Copy OK

Track 3

Filename C:\Staging\Anthology of Noise & Electronic Music_ Seventh and Last A-Chronolgy 1930-2012\3\03 - Cabaret Voltaire - Chance Versus Causuality.wav

Pre-gap length 0:00:02.00

Peak level 97.7 % Extraction speed 1.7 X Track quality 100.0 % Test CRC DBD79795 Copy CRC DBD79795 Accurately ripped (confidence 4) [8F48E3B0] (AR v2) Copy OK

Track 4

Filename C:\Staging\Anthology of Noise & Electronic Music_ Seventh and Last A-Chronolgy 1930-2012\3\04 - Mika Vainio - Transformer in 7.wav

Pre-gap length 0:00:02.00

Peak level 85.7 % Extraction speed 1.9 X Track quality 100.0 % Test CRC E8F7863F Copy CRC E8F7863F Accurately ripped (confidence 4) [1AC23263] (AR v2) Copy OK

Track 5

Filename C:\Staging\Anthology of Noise & Electronic Music_ Seventh and Last A-Chronolgy 1930-2012\3\05 - Alma Laprida + Juan José Calarco - Contorso.wav

Peak level 94.4 % Extraction speed 1.8 X Track quality 100.0 % Test CRC 2D2F6E3D Copy CRC 2D2F6E3D Accurately ripped (confidence 4) [400F3D91] (AR v2) Copy OK

Track 6

Filename C:\Staging\Anthology of Noise & Electronic Music_ Seventh and Last A-Chronolgy 1930-2012\3\06 - Klangkrieg - Korpus 1.wav

Pre-gap length 0:00:02.00

Peak level 77.6 % Extraction speed 1.9 X Track quality 100.0 % Test CRC FF265E31 Copy CRC FF265E31 Accurately ripped (confidence 4) [AEE3A631] (AR v2) Copy OK

Track 7

Filename C:\Staging\Anthology of Noise & Electronic Music_ Seventh and Last A-Chronolgy 1930-2012\3\07 - Gintas Kraptavicius - 4m.wav

Pre-gap length 0:00:00.97

Peak level 64.6 % Extraction speed 2.2 X Track quality 100.0 % Test CRC 7B6AF34C Copy CRC 7B6AF34C Accurately ripped (confidence 4) [9B68D87C] (AR v2) Copy OK

Track 8

Filename C:\Staging\Anthology of Noise & Electronic Music_ Seventh and Last A-Chronolgy 1930-2012\3\08 - Warong Rachapreecha - Shambles.wav

Pre-gap length 0:00:02.00

Peak level 68.7 % Extraction speed 1.4 X Track quality 100.0 % Test CRC A0CEF922 Copy CRC A0CEF922 Accurately ripped (confidence 4) [C1857359] (AR v2) Copy OK

Track 9

Filename C:\Staging\Anthology of Noise & Electronic Music_ Seventh and Last A-Chronolgy 1930-2012\3\09 - The New Blockaders - Blockade Is Resistance.wav

Peak level 57.8 % Extraction speed 2.4 X Track quality 100.0 % Test CRC 3E12C4C7 Copy CRC 3E12C4C7 Accurately ripped (confidence 4) [D713B2F5] (AR v2) Copy OK

Track 10

Filename C:\Staging\Anthology of Noise & Electronic Music_ Seventh and Last A-Chronolgy 1930-2012\3\10 - GX Jupitter-Larsen , The Haters - Fuechen.wav

Pre-gap length 0:00:01.00

Peak level 83.3 % Extraction speed 2.5 X Track quality 100.0 % Test CRC A92D2DFB Copy CRC A92D2DFB Accurately ripped (confidence 4) [786DDCEE] (AR v2) Copy OK

Track 11

Filename C:\Staging\Anthology of Noise & Electronic Music_ Seventh and Last A-Chronolgy 1930-2012\3\11 - The Rita - Skate.wav

Pre-gap length 0:00:02.00

Peak level 76.4 % Extraction speed 2.5 X Track quality 100.0 % Test CRC B2338B02 Copy CRC B2338B02 Accurately ripped (confidence 4) [283EC23C] (AR v2) Copy OK

Track 12

Filename C:\Staging\Anthology of Noise & Electronic Music_ Seventh and Last A-Chronolgy 1930-2012\3\12 - To Die - Terhempas luka , Jurang nestapa.wav

Pre-gap length 0:00:02.00

Peak level 97.7 % Extraction speed 1.8 X Track quality 100.0 % Test CRC EC574959 Copy CRC EC574959 Accurately ripped (confidence 4) [0A0D28ED] (AR v2) Copy OK

Track 13

Filename C:\Staging\Anthology of Noise & Electronic Music_ Seventh and Last A-Chronolgy 1930-2012\3\13 - Agro , Brandon Spivey + Richie Anderson - Only Those Who Attempt the Impossible Will Achieve the Absurd.wav

Pre-gap length 0:00:02.00

Peak level 97.7 % Extraction speed 2.6 X Track quality 100.0 % Test CRC 59F948CC Copy CRC 59F948CC Accurately ripped (confidence 4) [0EED4E6D] (AR v2) Copy OK

Track 14

Filename C:\Staging\Anthology of Noise & Electronic Music_ Seventh and Last A-Chronolgy 1930-2012\3\14 - Jamka - Wild Rose Trees.wav

Pre-gap length 0:00:02.00

Peak level 95.5 % Extraction speed 2.8 X Track quality 100.0 % Test CRC 8E9F50B3 Copy CRC 8E9F50B3 Accurately ripped (confidence 4) [BD9B7B90] (AR v2) Copy OK

Track 15

Filename C:\Staging\Anthology of Noise & Electronic Music_ Seventh and Last A-Chronolgy 1930-2012\3\15 - Erin Sexton - Suspend , 2 Electromagnetic Amplifiers.wav

Pre-gap length 0:00:02.00

Peak level 97.7 % Extraction speed 2.8 X Track quality 100.0 % Test CRC 3C935E73 Copy CRC 3C935E73 Accurately ripped (confidence 4) [7E6A2CC5] (AR v2) Copy OK

Track 16

Filename C:\Staging\Anthology of Noise & Electronic Music_ Seventh and Last A-Chronolgy 1930-2012\3\16 - Gustave Serpa - Astro Metal.wav

Pre-gap length 0:00:02.00

Peak level 66.4 % Extraction speed 2.9 X Track quality 100.0 % Test CRC A709104E Copy CRC A709104E Accurately ripped (confidence 4) [C10A3708] (AR v2) Copy OK

Track 17

Filename C:\Staging\Anthology of Noise & Electronic Music_ Seventh and Last A-Chronolgy 1930-2012\3\17 - [anonymous] - [untitled].wav

Pre-gap length 0:00:02.00

Peak level 97.7 % Extraction speed 1.2 X Track quality 100.0 % Test CRC F5D29D77 Copy CRC F5D29D77 Accurately ripped (confidence 4) [1A92C869] (AR v2) Copy OK

All tracks accurately ripped

No errors occurred

End of status report

---- CUETools DB Plugin V2.1.3

[CTDB TOCID: 7M9gIdVwIYAjMYckXXzOMyFg._A-] found, Submit result: 7M9gIdVwIYAjMYckXXzOMyFg._A- has been confirmed[045e7bba] (2/2) Accurately ripped

==== Log checksum 4FB8255FDA7E54916816C36391D2E4170DFE7A820298C393A4452492E9077304 ====
</div>
</div>
<div class="sp-wrap">
<div class="sp-head folded">CD1</div>
<div class="sp-body">

REM DATE 2013REM DISCID B112AA0CREM COMMENT "ExactAudioCopy v1.0b3"FILE "01 - Henry Jacobs - Sonata for Loudspeakers.wav" WAVE TRACK 01 AUDIO INDEX 01 00:00:00 TRACK 02 AUDIO INDEX 00 09:20:17FILE "02 - Dziga Vertov - Radio Pravda.wav" WAVE INDEX 01 00:00:00 TRACK 03 AUDIO INDEX 00 02:57:21FILE "03 - Bebe & Louis Barron - Bells of Atlantis.wav" WAVE INDEX 01 00:00:00 TRACK 04 AUDIO INDEX 00 09:00:29FILE "04 - Luciano Berio - Thema (Omaggio a Joyce).wav" WAVE INDEX 01 00:00:00 TRACK 05 AUDIO INDEX 00 06:12:35FILE "05 - Bülent Arel - Electronic Music.wav" WAVE INDEX 01 00:00:00 TRACK 06 AUDIO INDEX 00 08:37:67FILE "06 - Don Preston - Analog Heaven #6.wav" WAVE INDEX 01 00:00:00 TRACK 07 AUDIO INDEX 00 03:04:04FILE "07 - Slavek Kwi + Siobhán McDonald - Lava Samples.wav" WAVE INDEX 01 00:00:00 TRACK 08 AUDIO INDEX 00 02:02:27FILE "08 - Benjamin Thigpen - Thread0.wav" WAVE INDEX 01 00:00:00 TRACK 09 AUDIO INDEX 00 05:24:66FILE "09 - Helmut Schafer - Infuse.wav" WAVE INDEX 01 00:00:00 TRACK 10 AUDIO INDEX 00 07:36:66FILE "10 - Thanasis Kaproulias , Nova_sad - The Insolence of a Poppy.wav" WAVE INDEX 01 00:00:00 TRACK 11 AUDIO INDEX 00 13:22:72FILE "11 - Saule - Paperfilm.wav" WAVE INDEX 01 00:00:00 TRACK 12 AUDIO INDEX 00 11:22:03FILE "12 - Édouard-Léon Scott de Martinville - Au clair de la lune.wav" WAVE INDEX 01 00:00:00
REM DATE 2013REM DISCID 7B12130AREM COMMENT "ExactAudioCopy v1.0b3"FILE "01 - John Oswald - Vertical Time.wav" WAVE TRACK 01 AUDIO INDEX 01 00:00:00 TRACK 02 AUDIO INDEX 00 09:58:05FILE "02 - Israël Quellet - Pour percussions et saturation.wav" WAVE INDEX 01 00:00:00 TRACK 03 AUDIO INDEX 00 02:21:67FILE "03 - Dennis Wong , Sin-Ned - Decomposition.wav" WAVE INDEX 01 00:00:00 TRACK 04 AUDIO INDEX 00 05:03:42FILE "04 - Alan Courtis - Mind Broncoespasmo.wav" WAVE INDEX 01 00:00:00 TRACK 05 AUDIO INDEX 00 02:36:65FILE "05 - Fausto Romitelli - Trash TV Trance.wav" WAVE INDEX 01 00:00:00 TRACK 06 AUDIO INDEX 00 10:09:64FILE "06 - Justin K. Broadrick - Guitar Three.wav" WAVE INDEX 01 00:00:00 TRACK 07 AUDIO INDEX 00 10:21:02FILE "07 - Storm Bugs - Cash Wash , Eat Good Beans.wav" WAVE INDEX 01 00:00:00 TRACK 08 AUDIO INDEX 00 03:41:28FILE "08 - E.A.R. - Beyond the Pale.wav" WAVE INDEX 01 00:00:00 TRACK 09 AUDIO INDEX 00 14:49:16FILE "09 - Henry Cow - From Trondheim.wav" WAVE INDEX 01 00:00:00 TRACK 10 AUDIO INDEX 00 13:06:67FILE "10 - Osso Exótico - Rota de inverno.wav" WAVE INDEX 01 00:00:00
REM DATE 2013REM DISCID F512AA11REM COMMENT "ExactAudioCopy v1.0b3"FILE "01 - Eugeniusz Rudnik - Collage.wav" WAVE TRACK 01 AUDIO INDEX 01 00:00:00 TRACK 02 AUDIO INDEX 00 04:59:18FILE "02 - Eduardo Polonio - Transparencias.wav" WAVE INDEX 01 00:00:00 TRACK 03 AUDIO INDEX 00 07:07:74FILE "03 - Cabaret Voltaire - Chance Versus Causuality.wav" WAVE INDEX 01 00:00:00 TRACK 04 AUDIO INDEX 00 05:47:22FILE "04 - Mika Vainio - Transformer in 7.wav" WAVE INDEX 01 00:00:00FILE "05 - Alma Laprida + Juan José Calarco - Contorso.wav" WAVE TRACK 05 AUDIO INDEX 01 00:00:00 TRACK 06 AUDIO INDEX 00 02:36:41FILE "06 - Klangkrieg - Korpus 1.wav" WAVE INDEX 01 00:00:00 TRACK 07 AUDIO INDEX 00 03:37:30FILE "07 - Gintas Kraptavicius - 4m.wav" WAVE INDEX 01 00:00:00 TRACK 08 AUDIO INDEX 00 07:19:04FILE "08 - Warong Rachapreecha - Shambles.wav" WAVE INDEX 01 00:00:00FILE "09 - The New Blockaders - Blockade Is Resistance.wav" WAVE TRACK 09 AUDIO INDEX 01 00:00:00 TRACK 10 AUDIO INDEX 00 08:12:62FILE "10 - GX Jupitter-Larsen , The Haters - Fuechen.wav" WAVE INDEX 01 00:00:00 TRACK 11 AUDIO INDEX 00 05:20:14FILE "11 - The Rita - Skate.wav" WAVE INDEX 01 00:00:00 TRACK 12 AUDIO INDEX 00 04:59:13FILE "12 - To Die - Terhempas luka , Jurang nestapa.wav" WAVE INDEX 01 00:00:00 TRACK 13 AUDIO INDEX 00 01:03:20FILE "13 - Agro , Brandon Spivey + Richie Anderson - Only Those Who Attempt the Impossible Will Achieve the Absurd.wav" WAVE INDEX 01 00:00:00 TRACK 14 AUDIO INDEX 00 04:08:33FILE "14 - Jamka - Wild Rose Trees.wav" WAVE INDEX 01 00:00:00 TRACK 15 AUDIO INDEX 00 05:48:09FILE "15 - Erin Sexton - Suspend , 2 Electromagnetic Amplifiers.wav" WAVE INDEX 01 00:00:00 TRACK 16 AUDIO INDEX 00 04:51:63FILE "16 - Gustave Serpa - Astro Metal.wav" WAVE INDEX 01 00:00:00 TRACK 17 AUDIO INDEX 00 06:04:17FILE "17 - [anonymous] - [untitled].wav" WAVE INDEX 01 00:00:00
</div>
</div>

Трекер:  [ 31-Июл-2018 22:30 ]

  

Скачать .torrent

Размер .torrent файла 29 KB


Размер: 1.24 GB
Хэш (hash) релиза: 6553a38d93bb8d27475e214bece538316c2408b6

Еще никто не оставлял запись к записи скачать торрент . Будь первым!

!Обратная связь