Скачать через торрент музыку бесплатно без регистрации torrent

Статистика раздачи
Размер:  164 MB   |    Зарегистрирован:  2 месяца 16 дней   |    .torrent скачан:  57 раз   |   
Раздают:  1  
   
загрузка...
 
Автор Сообщение

Galfimbul

avatar Galfimbul


All India Radio
Subspace



• Жанр: Ambient | Downtempo | Experimental
• Носитель: WEB
• Год издания: 2018
• Издатель (лейбл) Samizdat
• Страна исполнителя (группы): Australia
• Аудиокодек: FLAC (*.flac)
• Тип рипа: tracks
• Продолжительность: 00:31:32
• Источник (релизер): NTDMMANIAC ®
• WEB релиз: bandcamp
• Наличие сканов: front



◈ 01 - Cowboy Futureworld (00:02:25)
◈ 02 - Interscene (00:02:07)
◈ 03 - Return Spirit Again (00:02:18)
◈ 04 - Skarasen (00:03:52)
◈ 05 - Spring Day (00:02:55)
◈ 06 - Kaurawinga (00:04:54)
◈ 07 - April Is Untitled (00:04:59)
◈ 08 - Speed (00:03:28)
◈ 09 - Fade to Light (00:04:31)

foobar2000 1.2.5 / Замер динамического диапазона (DR) 1.1.1Дата отчёта: 2018-07-31 21:22:11

--------------------------------------------------------------------------------Анализ: All India Radio / Subspace--------------------------------------------------------------------------------

DR Пики RMS Продолжительность трека--------------------------------------------------------------------------------DR11 -0.13 дБ -13.86 дБ 2:25 01-Cowboy FutureworldDR10 -1.25 дБ -14.20 дБ 2:07 02-IntersceneDR11 -1.14 дБ -17.68 дБ 2:19 03-Return Spirit AgainDR14 -0.13 дБ -16.28 дБ 3:52 04-SkarasenDR9 -1.01 дБ -12.19 дБ 2:56 05-Spring DayDR11 -0.13 дБ -13.00 дБ 4:54 06-KaurawingaDR10 -0.13 дБ -13.56 дБ 4:59 07-April Is UntitledDR9 -1.92 дБ -11.74 дБ 3:29 08-SpeedDR10 -0.13 дБ -13.15 дБ 4:31 09-Fade to Light--------------------------------------------------------------------------------

Количество треков: 9Реальные значения DR: DR11

Частота: 44100 ГцКаналов: 2Разрядность: 16Битрейт: 625 кбит/сКодек: FLAC================================================================================

-----------------------

DON'T MODIFY THIS FILE

-----------------------

PERFORMER: auCDtect Task Manager, ver. 1.6.0 RC1 build 1.6.0.1Copyright (c) 2008-2010 y-soft. All rights reservedhttp://y-soft.org

ANALYZER: auCDtect: CD records authenticity detector, version 0.8.2Copyright (c) 2004 Oleg Berngardt. All rights reserved.Copyright (c) 2004 Alexander Djourik. All rights reserved.

FILE: 09 - Fade to Light.flac Size: 21643510 Hash: 31040C1BB59BA9DDE270D8B09693D6B7 Accuracy: -m0 Conclusion: CDDA 100% Signature: 21380556C42BBEF07F7F104C4E388637CB135233FILE: 08 - Speed.flac Size: 20991567 Hash: 7D6B54CA18E96FEEE287836C48223FD3 Accuracy: -m0 Conclusion: CDDA 100% Signature: CFB827B8BEA9301789607CF0E6961ED460463CEAFILE: 07 - April Is Untitled.flac Size: 31242146 Hash: 2711454092473FFC1226BFED11453370 Accuracy: -m0 Conclusion: CDDA 100% Signature: 45858D890C41446ACE69EEF8F5338E7EA1AD3F8EFILE: 06 - Kaurawinga.flac Size: 25508500 Hash: D2C9C11A093C3F8FF4451A30FA6B0C30 Accuracy: -m0 Conclusion: CDDA 100% Signature: 5D41A43E5BB444A41289679BDB77560CB5FA52F1FILE: 05 - Spring Day.flac Size: 21241736 Hash: 97059500B46EBC3F9BC697658ECAE4FE Accuracy: -m0 Conclusion: CDDA 100% Signature: 77783C407606A0B79F9A8FEEEE6DBC40EC11C0A2FILE: 04 - Skarasen.flac Size: 22853400 Hash: 552907B7B5431334DE19AA2DB4EEAE8D Accuracy: -m0 Conclusion: CDDA 100% Signature: 8B84F5DA34A1749392979C48B5EA850CF42567F7FILE: 03 - Return Spirit Again.flac Size: 9124374 Hash: 29CD72082B1A42819C05A7CCA23C0A66 Accuracy: -m0 Conclusion: CDDA 42% Signature: 930F7449B877F6A9236B539903328D559076F10BFILE: 02 - Interscene.flac Size: 8818151 Hash: 59B9F2B1FB72F2A1E2822A75F3C3D127 Accuracy: -m0 Conclusion: CDDA 100% Signature: 64BE9EEF1380DE72FE7CC5025AEEF550BE86DBFAFILE: 01 - Cowboy Futureworld.flac Size: 13643259 Hash: F4E9AE8C1A715C5033E32A88F6EC941D Accuracy: -m0 Conclusion: CDDA 100% Signature: 1F14BA29C32EC8F7D23BA3DE66A7773BC459BE7B



Трекер:  [ 31-Июл-2018 23:01 ]

  

Скачать .torrent

Размер .torrent файла 13 KB


Размер: 164 MB
Хэш (hash) релиза: 6a06e08b40b24b6b906ec2bf3d394a6f0a0d1f4d

Еще никто не оставлял запись к записи скачать торрент . Будь первым!

!Обратная связь