Скачать через торрент Филопат и Патафил. Гонка Filopat & Patafil. Der Wettlauf Фильм бесплатно в хорошем качестве torrent

Скачивайте на UnionPeer.org фильмы через торрент без регистрации. Новинки кино в хорошем качестве через торрент. На UnionPeer.org можно скачать через торрент фильмы 2014 и 2015 годов. Самые новые фильмы.

Скачать торрент Филопат и Патафил. Гонка Filopat & Patafil. Der Wettlauf бесплатно через .torrent фильм мультфильм сериал

Статистика раздачи
Размер:  46 MB   |    Зарегистрирован:  2 месяца 22 дня   |    .torrent скачан:  29 раз   |   
Раздают:  1  
   
загрузка...
 
Автор Сообщение

Galfimbul

avatar Galfimbul


Филопат и Патафил. Гонка / Filopat & Patafil. Der Wettlauf

Страна: ГДР
Жанр: мультфильм
Продолжительность: 00:05:42
Год выпуска: 1963
Перевод: не требуется
Русские субтитры: нет

Режиссёр: Гюнтер Ратц / Gunter Rätz

Описание: Патафил и Филопат - два проволочных человечка, персонажи серии мультфильмов студии DEFA. Они постоянно соперничают. В этом фильме они устраивают бег наперегонки, но длинный при этом пытается жульничать.

Качество: WEBRip
Формат: AVI
Видео: 979 kbps, 512х384 (4:3), 24.000 fps, MPEG-4 Visual (XviD)
Аудио: 128 kbps, 44.1 kHz, 2 channels, MPEG Audio (MP3)
Субтитры: отсутствуют
GeneralComplete name : Filopat & Patafil. Der Wettlauf. 1963.aviFormat : AVIFormat/Info : Audio Video InterleaveFile size : 45.6 MiBDuration : 5mn 42sOverall bit rate : 1 117 KbpsWriting application : VirtualDubMod 1.5.10.2 (build 2540/release)Writing library : VirtualDubMod build 2540/release

VideoID : 0Format : MPEG-4 VisualFormat profile : Advanced Simple@L5Format settings, BVOP : 2Format settings, QPel : NoFormat settings, GMC : No warppointsFormat settings, Matrix : Default (H.263)Codec ID : XVIDCodec ID/Hint : XviDDuration : 5mn 42sBit rate : 979 KbpsWidth : 512 pixelsHeight : 384 pixelsDisplay aspect ratio : 4:3Frame rate : 24.000 fpsColor space : YUVChroma subsampling : 4:2:0Bit depth : 8 bitsScan type : ProgressiveCompression mode : LossyBits/(Pixel*Frame) : 0.207Stream size : 40.0 MiB (88%)Writing library : XviD 73

AudioID : 1Format : MPEG AudioFormat version : Version 1Format profile : Layer 3Codec ID : 55Codec ID/Hint : MP3Duration : 5mn 42sBit rate mode : ConstantBit rate : 128 KbpsChannel(s) : 2 channelsSampling rate : 44.1 KHzCompression mode : LossyStream size : 5.23 MiB (11%)Alignment : Split accross interleavesInterleave, duration : 42 ms (1.00 video frame)Interleave, preload duration : 500 ms


Трекер:  [ 01-Авг-2018 09:01 ]

  

Скачать .torrent

Размер .torrent файла 15 KB


Размер: 46 MB
Хэш (hash) релиза: 5ca426dd776663c4c3b3833add03eb0150be61ed
Подписка на обновления:

Еще никто не оставлял запись к записи скачать торрент Филопат и Патафил. Гонка Filopat & Patafil. Der Wettlauf . Будь первым!

!Обратная связь