Скачать через торрент музыку бесплатно без регистрации torrent

Статистика раздачи
Размер:  339 MB   |    Зарегистрирован:  2 месяца 21 день   |    .torrent скачан:  36 раз   |   
Раздают:  1  
   
загрузка...
 
Автор Сообщение

Galfimbul

avatar Galfimbul


VA
"Polish Radio Experimental Studio Revisited (1998-2018)"

ЖАНР — Experimental | Electronic | Modern Classical
ИЗДАТЕЛЬ — The WIRE magazine (UK)
ИСТОЧНИК — REDacted.ch

ФОРМАТ — CD | Compilation
РЕЛИЗ — June, 2018
ВРЕМЯ — 01:13:30

ТИП РИПА — tracks+.cue
КОДЕК — FLAC (*.flac)
БИТРЕЙТ — lossless

.

TRACK LISTING

01. DJ Lenar — Second Three (04:57)
02. Jacaszek — Tajga (02:04)
03. Biosphere — Les fleurs du mal [excerpt] (05:07)
04. Valerio Tricoli — Lustra na suficie (05:56)
05. Maja S.K. Ratkje — In Dialogue With Rudnik [excerpt] (06:10)
06. Remigiusz Mazur-Hanaj — Halo panie Marianie? (01:57)
07. Jacek Sienkiewicz — Drogi (05:04)
08. Denis Ebehard (perf. zeitkratzer) — Icon [excerpt] (07:16)
09. Mirt — Solitaire 5 [excerpt] (07:24)
10. Włodzimierz Kotoński (perf. Małe Instumenty) — Study for One Cymbal Stroke (02:53)
11. Bogusław Schaeffer (perf. Bohdan Mazurek) — Symphony: Electronic Music Part 1 (05:19)
12. Bogusław Schaeffer (perf. Thomas Lehn) — Symphony: Electronic Music Part 2 (04:51)
13. Bogusław Schaeffer (perf. Barbara Okań-Makowska) — Symphony: Electronic Music Part 3 (02:27)
14. Bogusław Schaeffer (perf. Wolfram) — Symphony: Electronic Music Part 4 (04:53)
15. Lionel Marchetti — The Answer (07:22)
<div class="sp-wrap">
<div class="sp-head folded">EAC</div>
<div class="sp-body">

Exact Audio Copy V1.0 beta 3 from 29. August 2011

EAC extraction logfile from 17. June 2018, 12:01

Various / Polish Radio Experimental Studio Revisited 1998-2018

Used drive : ASUS BW-16D1HT Adapter: 0 ID: 0

Read mode : SecureUtilize accurate stream : YesDefeat audio cache : YesMake use of C2 pointers : No

Read offset correction : 6Overread into Lead-In and Lead-Out : NoFill up missing offset samples with silence : YesDelete leading and trailing silent blocks : NoNull samples used in CRC calculations : YesUsed interface : Native Win32 interface for Win NT & 2000Gap handling : Appended to previous track

Used output format : User Defined EncoderSelected bitrate : 1024 kBit/sQuality : HighAdd ID3 tag : NoCommand line compressor : C:\Program Files (x86)\Exact Audio Copy\Flac\flac.exeAdditional command line options : -8 -e -p -V -T "ARTIST=%artist%" -T "TITLE=%title%" -T "ALBUM=%albumtitle%" -T "DATE=%year%" -T "TRACKNUMBER=%tracknr%" -T "GENRE=%genre%" -T "PERFORMER=%albuminterpret%" -T "COMPOSER=%composer%" %haslyrics%--tag-from-file=LYRICS="%lyricsfile%"%haslyrics% -T "ALBUMARTIST=%albumartist%" -T "DISCNUMBER=%cdnumber%" -T "TOTALDISCS=%totalcds%" -T "TOTALTRACKS=%numtracks%" -T "COMMENT=%comment%" %source% -o %dest%

TOC of the extracted CD

Track | Start | Length | Start sector | End sector --------------------------------------------------------- 1 | 0:00.00 | 4:56.64 | 0 | 22263 2 | 4:56.64 | 2:03.16 | 22264 | 31504 3 | 7:00.05 | 5:06.08 | 31505 | 54462 4 | 12:06.13 | 5:55.08 | 54463 | 81095 5 | 18:01.21 | 6:09.50 | 81096 | 108820 6 | 24:10.71 | 1:56.09 | 108821 | 117529 7 | 26:07.05 | 5:03.30 | 117530 | 140284 8 | 31:10.35 | 7:15.07 | 140285 | 172916 9 | 38:25.42 | 7:23.15 | 172917 | 206156 10 | 45:48.57 | 2:52.21 | 206157 | 219077 11 | 48:41.03 | 5:18.35 | 219078 | 242962 12 | 53:59.38 | 4:50.07 | 242963 | 264719 13 | 58:49.45 | 2:26.14 | 264720 | 275683 14 | 61:15.59 | 4:52.41 | 275684 | 297624 15 | 66:08.25 | 7:21.20 | 297625 | 330719

Track 1

Filename C:\EAC RIPS\01 - Second Three.wav

Pre-gap length 0:00:02.00

Peak level 79.2 % Extraction speed 4.8 X Track quality 100.0 % Test CRC D984AD51 Copy CRC D984AD51 Track not present in AccurateRip database Copy OK

Track 2

Filename C:\EAC RIPS\02 - Tajga.wav

Pre-gap length 0:00:01.74

Peak level 98.1 % Extraction speed 4.5 X Track quality 100.0 % Test CRC ABAD20A1 Copy CRC ABAD20A1 Track not present in AccurateRip database Copy OK

Track 3

Filename C:\EAC RIPS\03 - Les Fleurs Du Mal (excerpt).wav

Pre-gap length 0:00:01.76

Peak level 98.1 % Extraction speed 4.8 X Track quality 99.9 % Test CRC 206A1B55 Copy CRC 206A1B55 Track not present in AccurateRip database Copy OK

Track 4

Filename C:\EAC RIPS\04 - Lustra Na Suficie.wav

Pre-gap length 0:00:01.74

Peak level 71.9 % Extraction speed 6.2 X Track quality 100.0 % Test CRC 4491E291 Copy CRC 4491E291 Track not present in AccurateRip database Copy OK

Track 5

Filename C:\EAC RIPS\05 - In Dialogue With Rudnik (excerpt).wav

Pre-gap length 0:00:01.74

Peak level 98.1 % Extraction speed 6.7 X Track quality 100.0 % Test CRC 4B9F9082 Copy CRC 4B9F9082 Track not present in AccurateRip database Copy OK

Track 6

Filename C:\EAC RIPS\06 - Halo, Panie Marianie.wav

Pre-gap length 0:00:01.74

Peak level 98.1 % Extraction speed 5.9 X Track quality 100.0 % Test CRC F1842C77 Copy CRC F1842C77 Track not present in AccurateRip database Copy OK

Track 7

Filename C:\EAC RIPS\07 - Drogi.wav

Pre-gap length 0:00:01.74

Peak level 98.1 % Extraction speed 7.2 X Track quality 100.0 % Test CRC D0E04883 Copy CRC D0E04883 Track not present in AccurateRip database Copy OK

Track 8

Filename C:\EAC RIPS\08 - Icon perf. zeitkratzer (excerpt).wav

Pre-gap length 0:00:01.74

Peak level 96.3 % Extraction speed 7.8 X Track quality 100.0 % Test CRC 8BEF995D Copy CRC 8BEF995D Track not present in AccurateRip database Copy OK

Track 9

Filename C:\EAC RIPS\09 - Solitaire 5 (excerpt).wav

Pre-gap length 0:00:01.74

Peak level 94.8 % Extraction speed 7.4 X Track quality 99.9 % Test CRC 69C3C4C0 Copy CRC 69C3C4C0 Track not present in AccurateRip database Copy OK

Track 10

Filename C:\EAC RIPS\10 - Study For One Cymbal Stroke perf. Małe Instrumenty.wav

Pre-gap length 0:00:01.74

Peak level 98.1 % Extraction speed 6.0 X Track quality 99.9 % Test CRC 9C5499AE Copy CRC 9C5499AE Track not present in AccurateRip database Copy OK

Track 11

Filename C:\EAC RIPS\11 - Symphony - Electronic Music Part 1 perf. Bohdan Mazurek.wav

Pre-gap length 0:00:01.74

Peak level 98.1 % Extraction speed 8.6 X Track quality 100.0 % Test CRC 1501254C Copy CRC 1501254C Track not present in AccurateRip database Copy OK

Track 12

Filename C:\EAC RIPS\12 - Symphony - Electronic Music Part 2 perf. Thomas Lehn.wav

Pre-gap length 0:00:01.74

Peak level 98.1 % Extraction speed 8.8 X Track quality 100.0 % Test CRC F26CC580 Copy CRC F26CC580 Track not present in AccurateRip database Copy OK

Track 13

Filename C:\EAC RIPS\13 - Symphony - Electronic Music Part 3 perf. Barbara Okań-Makowska.wav

Pre-gap length 0:00:01.74

Peak level 98.1 % Extraction speed 8.2 X Track quality 100.0 % Test CRC ABE1D3BF Copy CRC ABE1D3BF Track not present in AccurateRip database Copy OK

Track 14

Filename C:\EAC RIPS\14 - Symphony - Electronic Music Part 4 perf. Wolfram.wav

Pre-gap length 0:00:01.74

Peak level 67.5 % Extraction speed 8.6 X Track quality 100.0 % Test CRC 715704A6 Copy CRC 715704A6 Track not present in AccurateRip database Copy OK

Track 15

Filename C:\EAC RIPS\15 - The Answer.wav

Pre-gap length 0:00:01.74

Peak level 98.1 % Extraction speed 9.8 X Track quality 100.0 % Test CRC 3AC79CC0 Copy CRC 3AC79CC0 Track not present in AccurateRip database Copy OK

None of the tracks are present in the AccurateRip database

No errors occurred

End of status report

---- CUETools DB Plugin V2.1.3

[CTDB TOCID: eHIb61boR.Jdb5GfrzCXDegaZtI-] found[0b7c4b09] (1/1) No match

==== Log checksum B88AB01109981CE416CD225E88CB89CAA4CF3E4AAB5E6C119A8385304647CD7D ====
REM GENRE ExperimentalREM DATE 2018REM DISCID D711390FREM COMMENT "ExactAudioCopy v1.0b3"PERFORMER "Various Artists"TITLE "Polish Radio Experimental Studio Revisited (1998-2018)"FILE "01. DJ Lenar - Second Three.wav" WAVE TRACK 01 AUDIO TITLE "Second Three" PERFORMER "DJ Lenar" INDEX 01 00:00:00 TRACK 02 AUDIO TITLE "Tajga" PERFORMER "Jacaszek" INDEX 00 04:55:08FILE "02. Jacaszek - Tajga.wav" WAVE INDEX 01 00:00:00 TRACK 03 AUDIO TITLE "Les fleurs du mal (excerpt)" PERFORMER "Biosphere" INDEX 00 02:01:34FILE "03. Biosphere - Les fleurs du mal (excerpt).wav" WAVE INDEX 01 00:00:00 TRACK 04 AUDIO TITLE "Lustra na suficie" PERFORMER "Valerio Tricoli" INDEX 00 05:04:27FILE "04. Valerio Tricoli - Lustra na suficie.wav" WAVE INDEX 01 00:00:00 TRACK 05 AUDIO TITLE "In Dialogue With Rudnik (excerpt)" PERFORMER "Maja S.K. Ratkje" INDEX 00 05:53:27FILE "05. Maja S.K. Ratkje - In Dialogue With Rudnik (excerpt).wav" WAVE INDEX 01 00:00:00 TRACK 06 AUDIO TITLE "Halo panie Marianie?" PERFORMER "Remigiusz Mazur-Hanaj" INDEX 00 06:07:69FILE "06. Remigiusz Mazur-Hanaj - Halo panie Marianie.wav" WAVE INDEX 01 00:00:00 TRACK 07 AUDIO TITLE "Drogi" PERFORMER "Jacek Sienkiewicz" INDEX 00 01:54:28FILE "07. Jacek Sienkiewicz - Drogi.wav" WAVE INDEX 01 00:00:00 TRACK 08 AUDIO TITLE "Icon (excerpt)" PERFORMER "Denis Ebehard (perf. zeitkratzer)" INDEX 00 05:01:49FILE "08. Denis Ebehard (perf. zeitkratzer) - Icon (excerpt).wav" WAVE INDEX 01 00:00:00 TRACK 09 AUDIO TITLE "Solitaire 5 (excerpt)" PERFORMER "Mirt" INDEX 00 07:13:26FILE "09. Mirt - Solitaire 5 (excerpt).wav" WAVE INDEX 01 00:00:00 TRACK 10 AUDIO TITLE "Study for One Cymbal Stroke" PERFORMER "Włodzimierz Kotoński (perf. Małe Instumenty)" INDEX 00 07:21:34FILE "10. Włodzimierz Kotoński (perf. Małe Instumenty) - Study for One Cymbal Stroke.wav" WAVE INDEX 01 00:00:00 TRACK 11 AUDIO TITLE "Symphony: Electronic Music Part 1" PERFORMER "Bogusław Schaeffer (perf. Bohdan Mazurek)" INDEX 00 02:50:40FILE "11. Bogusław Schaeffer (perf. Bohdan Mazurek) - Symphony. Electronic Music Part 1.wav" WAVE INDEX 01 00:00:00 TRACK 12 AUDIO TITLE "Symphony: Electronic Music Part 2" PERFORMER "Bogusław Schaeffer (perf. Thomas Lehn)" INDEX 00 05:16:54FILE "12. Bogusław Schaeffer (perf. Thomas Lehn) - Symphony. Electronic Music Part 2.wav" WAVE INDEX 01 00:00:00 TRACK 13 AUDIO TITLE "Symphony: Electronic Music Part 3" PERFORMER "Bogusław Schaeffer (perf. Barbara Okań-Makowska)" INDEX 00 04:48:26FILE "13. Bogusław Schaeffer (perf. Barbara Okań-Makowska) - Symphony. Electronic Music Part 3.wav" WAVE INDEX 01 00:00:00 TRACK 14 AUDIO TITLE "Symphony: Electronic Music Part 4" PERFORMER "Bogusław Schaeffer (perf. Wolfram)" INDEX 00 02:24:33FILE "14. Bogusław Schaeffer (perf. Wolfram) - Symphony. Electronic Music Part 4.wav" WAVE INDEX 01 00:00:00 TRACK 15 AUDIO TITLE "The Answer" PERFORMER "Lionel Marchetti" INDEX 00 04:50:60FILE "15. Lionel Marchetti - The Answer.wav" WAVE INDEX 01 00:00:00
</div>
</div>

Трекер:  [ 01-Авг-2018 12:01 ]

  

Скачать .torrent

Размер .torrent файла 15 KB


Размер: 339 MB
Хэш (hash) релиза: 1606aa8e569cf6de2ded7fc8295fb7f269d84a11

Еще никто не оставлял запись к записи скачать торрент . Будь первым!

!Обратная связь