Скачать через торрент музыку О чём говорят мужчины - 2010, FLAC бесплатно без регистрации torrent

Статистика раздачи
Размер:  388 MB   |    Зарегистрирован:  7 месяцев   |    .torrent скачан:  60 раз   |   
Раздают:  1  
   
загрузка...
 
Автор Сообщение

Galfimbul

avatar Galfimbul


О чём говорят мужчины (Original Soundtrack)

Жанр: Soundtrack
Год выпуска диска: 2010
Год выпуска фильма: 2010
Страна-производитель диска: Россия
Издатель (лейбл): Мистерия Звука
Номер по каталогу: CD-M+112-2
Аудиокодек: FLAC (*.flac)
Тип рипа: tracks+.cue
Битрейт аудио: lossless
Продолжительность: 56 : 15
Источник: собственный рип
Наличие сканов в содержимом раздачи: нет
Треклист:
01 Скандал
02 Реки любви
03 Вечная Призрачная Встречная
04 Ярмарка невест
05 Чёрный день
06 Задеть за живое
07 Когда мы станем снегом
08 Фавн Dj
09 Её глаза (из Шекспира)
10 Падает снег (feat. Чичерина)
11 Танго
12 Ярмарка Ska
Exact Audio Copy V1.3 from 2. September 2016

Отчёт EAC об извлечении, выполненном 1. августа 2018, 10:52

- / О чём говорят мужчины (OST)

Дисковод: Optiarc DVD RW AD-7200A Adapter: 1 ID: 0

Режим чтения : ДостоверностьИспользование точного потока : ДаОтключение кэша аудио : ДаИспользование указателей C2 : Нет

Коррекция смещения при чтении : 48Способность читать области Lead-in и Lead-out : НетЗаполнение пропущенных сэмплов тишиной : ДаУдаление блоков с тишиной в начале и конце : НетПри вычислениях CRC использовались нулевые сэмплы : ДаИнтерфейс : Встроенный Win32-интерфейс для Win NT/2000Обработка зазоров : Добавлено к предыдущему треку

Выходной формат : Пользовательский кодировщикВыбранный битрейт : 128 kBit/sКачество : ВысокийДобавление ID3-тега : НетУтилита сжатия : C:\Program Files\Exact Audio Copy\FLAC\FLAC.EXEДополнительные параметры : -6 -V -T "ARTIST=%artist%" -T "TITLE=%title%" -T "ALBUM=%albumtitle%" -T "DATE=%year%" -T "TRACKNUMBER=%tracknr%" -T "GENRE=%genre%" -T "COMMENT=%comment%" -T "BAND=%albuminterpret%" -T "ALBUMARTIST=%albuminterpret%" -T "COMPOSER=%composer%" %haslyrics%--tag-from-file=LYRICS="%lyricsfile%"%haslyrics% -T "DISCNUMBER=%cdnumber%" -T "TOTALDISCS=%totalcds%" -T "TOTALTRACKS=%numtracks%" %hascover%--picture="%coverfile%"%hascover% %source% -o %dest%

TOC извлечённого CD

Трек | Старт | Длительность | Начальный сектор | Конечный сектор --------------------------------------------------------------------- 1 | 0:00.00 | 3:29.49 | 0 | 15723 2 | 3:29.49 | 4:08.43 | 15724 | 34366 3 | 7:38.17 | 5:11.69 | 34367 | 57760 4 | 12:50.11 | 5:26.31 | 57761 | 82241 5 | 18:16.42 | 3:43.37 | 82242 | 99003 6 | 22:00.04 | 7:34.15 | 99004 | 133068 7 | 29:34.19 | 4:25.05 | 133069 | 152948 8 | 33:59.24 | 4:14.46 | 152949 | 172044 9 | 38:13.70 | 4:52.73 | 172045 | 194017 10 | 43:06.68 | 4:03.46 | 194018 | 212288 11 | 47:10.39 | 3:37.09 | 212289 | 228572 12 | 50:47.48 | 5:33.20 | 228573 | 253567

Трек 1

Имя файла C:\Users\User\Documents\01. Би-2 - Скандал.wav

Длина предзазора 0:00:02.00

Пиковый уровень 100.0 % Скорость извлечения 2.2 X Качество трека 100.0 % CRC теста 5C19AFE8 CRC копии 5C19AFE8 Точное извлечение (достоверность 1) [1A1A7B82] (AR v1) Копирование... OK

Трек 2

Имя файла C:\Users\User\Documents\02. Би-2 - Реки любви.wav

Длина предзазора 0:00:01.74

Пиковый уровень 100.0 % Скорость извлечения 2.5 X Качество трека 100.0 % CRC теста B4F76F41 CRC копии B4F76F41 Точное извлечение (достоверность 1) [257881E6] (AR v1) Копирование... OK

Трек 3

Имя файла C:\Users\User\Documents\03. Би-2 - Вечная Призрачная Встречная.wav

Длина предзазора 0:00:01.74

Пиковый уровень 100.0 % Скорость извлечения 2.9 X Качество трека 100.0 % CRC теста 116B2C24 CRC копии 116B2C24 Точное извлечение (достоверность 1) [B0221596] (AR v1) Копирование... OK

Трек 4

Имя файла C:\Users\User\Documents\04. Би-2 - Ярмарка невест.wav

Длина предзазора 0:00:01.74

Пиковый уровень 100.0 % Скорость извлечения 3.2 X Качество трека 100.0 % CRC теста 582B8589 CRC копии 582B8589 Точное извлечение (достоверность 1) [D53A9ACB] (AR v1) Копирование... OK

Трек 5

Имя файла C:\Users\User\Documents\05. Би-2 - Чёрный день.wav

Длина предзазора 0:00:01.74

Пиковый уровень 100.0 % Скорость извлечения 3.3 X Качество трека 100.0 % CRC теста 5D7DA8AC CRC копии 5D7DA8AC Точное извлечение (достоверность 1) [5B6DC07F] (AR v1) Копирование... OK

Трек 6

Имя файла C:\Users\User\Documents\06. Би-2 - Задеть за живое.wav

Длина предзазора 0:00:01.74

Пиковый уровень 100.0 % Скорость извлечения 3.8 X Качество трека 100.0 % CRC теста ABA1E4C3 CRC копии ABA1E4C3 Точное извлечение (достоверность 1) [2BC206AC] (AR v1) Копирование... OK

Трек 7

Имя файла C:\Users\User\Documents\07. Би-2 - Когда мы станем снегом.wav

Длина предзазора 0:00:01.74

Пиковый уровень 100.0 % Скорость извлечения 3.9 X Качество трека 100.0 % CRC теста DDCB3A23 CRC копии DDCB3A23 Точное извлечение (достоверность 1) [200344D3] (AR v1) Копирование... OK

Трек 8

Имя файла C:\Users\User\Documents\08. Би-2 - Фавн Dj.wav

Длина предзазора 0:00:01.74

Пиковый уровень 100.0 % Скорость извлечения 3.6 X Качество трека 99.9 % CRC теста F03A0687 CRC копии F03A0687 Точное извлечение (достоверность 1) [4038D17E] (AR v1) Копирование... OK

Трек 9

Имя файла C:\Users\User\Documents\09. Би-2 - Её глаза (из Шекспира).wav

Длина предзазора 0:00:01.74

Пиковый уровень 100.0 % Скорость извлечения 4.3 X Качество трека 100.0 % CRC теста 52DC62D0 CRC копии 52DC62D0 Точное извлечение (достоверность 1) [DCA0AED9] (AR v1) Копирование... OK

Трек 10

Имя файла C:\Users\User\Documents\10. Би-2 feat. Чичерина - Падает снег.wav

Длина предзазора 0:00:03.31

Пиковый уровень 100.0 % Скорость извлечения 4.3 X Качество трека 100.0 % CRC теста 1663D89A CRC копии 1663D89A Точное извлечение (достоверность 1) [AF59B8F8] (AR v1) Копирование... OK

Трек 11

Имя файла C:\Users\User\Documents\11. Би-2 - Танго.wav

Длина предзазора 0:00:01.74

Пиковый уровень 100.0 % Скорость извлечения 3.8 X Качество трека 99.9 % CRC теста 1FA4D775 CRC копии 1FA4D775 Точное извлечение (достоверность 1) [6005EF38] (AR v1) Копирование... OK

Трек 12

Имя файла C:\Users\User\Documents\12. Би-2 - Ярмарка Ska.wav

Длина предзазора 0:00:01.74

Пиковый уровень 100.0 % Скорость извлечения 4.8 X Качество трека 100.0 % CRC теста 0AB01D10 CRC копии 0AB01D10 Точное извлечение (достоверность 1) [FCF49B39] (AR v1) Копирование... OK

Все треки извлечены точно

Ошибок не произошло

Конец отчёта

==== Контрольная сумма отчёта 6B1FD63E1B7D9878C0900D5E78F5716A0662E601712276A4B8788AF56BF13601 ====
REM GENRE SoundtrackREM DATE 2010REM DISCID 9E0D340CREM COMMENT "ExactAudioCopy v1.3"PERFORMER ""TITLE "О чём говорят мужчины (OST)"REM COMPOSER ""FILE "01. Би-2 - Скандал.wav" WAVE TRACK 01 AUDIO TITLE "Скандал" PERFORMER "Би-2" REM COMPOSER "" INDEX 01 00:00:00 TRACK 02 AUDIO TITLE "Реки любви" PERFORMER "Би-2" REM COMPOSER "" INDEX 00 03:27:50FILE "02. Би-2 - Реки любви.wav" WAVE INDEX 01 00:00:00 TRACK 03 AUDIO TITLE "Вечная Призрачная Встречная" PERFORMER "Би-2" REM COMPOSER "" INDEX 00 04:06:44FILE "03. Би-2 - Вечная Призрачная Встречная.wav" WAVE INDEX 01 00:00:00 TRACK 04 AUDIO TITLE "Ярмарка невест" PERFORMER "Би-2" REM COMPOSER "" INDEX 00 05:09:70FILE "04. Би-2 - Ярмарка невест.wav" WAVE INDEX 01 00:00:00 TRACK 05 AUDIO TITLE "Чёрный день" PERFORMER "Би-2" REM COMPOSER "" INDEX 00 05:24:32FILE "05. Би-2 - Чёрный день.wav" WAVE INDEX 01 00:00:00 TRACK 06 AUDIO TITLE "Задеть за живое" PERFORMER "Би-2" REM COMPOSER "" INDEX 00 03:41:38FILE "06. Би-2 - Задеть за живое.wav" WAVE INDEX 01 00:00:00 TRACK 07 AUDIO TITLE "Когда мы станем снегом" PERFORMER "Би-2" REM COMPOSER "" INDEX 00 07:32:16FILE "07. Би-2 - Когда мы станем снегом.wav" WAVE INDEX 01 00:00:00 TRACK 08 AUDIO TITLE "Фавн Dj" PERFORMER "Би-2" REM COMPOSER "" INDEX 00 04:23:06FILE "08. Би-2 - Фавн Dj.wav" WAVE INDEX 01 00:00:00 TRACK 09 AUDIO TITLE "Её глаза (из Шекспира)" PERFORMER "Би-2" REM COMPOSER "" INDEX 00 04:12:47FILE "09. Би-2 - Её глаза (из Шекспира).wav" WAVE INDEX 01 00:00:00 TRACK 10 AUDIO TITLE "Падает снег" PERFORMER "Би-2 feat. Чичерина" REM COMPOSER "" INDEX 00 04:49:42FILE "10. Би-2 feat. Чичерина - Падает снег.wav" WAVE INDEX 01 00:00:00 TRACK 11 AUDIO TITLE "Танго" PERFORMER "Би-2" REM COMPOSER "" INDEX 00 04:01:47FILE "11. Би-2 - Танго.wav" WAVE INDEX 01 00:00:00 TRACK 12 AUDIO TITLE "Ярмарка Ska" PERFORMER "Би-2" REM COMPOSER "" INDEX 00 03:35:10FILE "12. Би-2 - Ярмарка Ska.wav" WAVE INDEX 01 00:00:00
-----------------------

DON'T MODIFY THIS FILE

-----------------------

PERFORMER: auCDtect Task Manager, ver. 1.6.0 RC1 build 1.6.0.1Copyright (c) 2008-2010 y-soft. All rights reservedhttp://y-soft.org

ANALYZER: auCDtect: CD records authenticity detector, version 0.8.2Copyright (c) 2004 Oleg Berngardt. All rights reserved.Copyright (c) 2004 Alexander Djourik. All rights reserved.

FILE: 12. Би-2 - Ярмарка Ska.flac Size: 38637666 Hash: 0C36E95736E525BAEEF7DEAC691894B4 Accuracy: -m0 Conclusion: CDDA 100% Signature: E556091B9C7C254B96ABADF510A97268F60A7F6DFILE: 11. Би-2 - Танго.flac Size: 24137167 Hash: 94BBA8FAF42F0157E4607D16BF9ACFDD Accuracy: -m0 Conclusion: CDDA 100% Signature: F9DA85112BC2213B40CC33F2C828880E4A2A2FC1FILE: 10. Би-2 feat. Чичерина - Падает снег.flac Size: 21169736 Hash: DD80F04ECCA04BB1D2352854E156184B Accuracy: -m0 Conclusion: CDDA 100% Signature: B53DFECD77B328C61FA2B60E8BAA291157386505FILE: 09. Би-2 - Её глаза (из Шекспира).flac Size: 31535145 Hash: F1F2DCA01F485B8064EBE010F035591E Accuracy: -m0 Conclusion: CDDA 100% Signature: AEF40E0CB4957174B6E2FCFDB63AEBD9172783EDFILE: 08. Би-2 - Фавн Dj.flac Size: 33243209 Hash: 077B68574133EE0CE44A809D825F00C7 Accuracy: -m0 Conclusion: CDDA 99% Signature: 42A0B8CEC7486E0298F68E32C7DE86BFD97B8EF6FILE: 07. Би-2 - Когда мы станем снегом.flac Size: 31924923 Hash: C6A6551370D7FBB0A147F1EB72C4A6A4 Accuracy: -m0 Conclusion: CDDA 100% Signature: F7B44BA51B615DB0F8EBF647B3AD1072A2D314FFFILE: 06. Би-2 - Задеть за живое.flac Size: 58490621 Hash: 048BBBEB236E17D6DC2EB296910AA78A Accuracy: -m0 Conclusion: CDDA 100% Signature: 51F0584FFFE9297FAE44CCF4C9578977F60FFB14FILE: 05. Би-2 - Чёрный день.flac Size: 28832227 Hash: 35B28D5490DA30E922FFCE721FA8A037 Accuracy: -m0 Conclusion: CDDA 100% Signature: 50C08A856157FE6821C93B4B5CF607128CB300CEFILE: 04. Би-2 - Ярмарка невест.flac Size: 41568334 Hash: BF52137BB2E9D7562A49982A7164EBF8 Accuracy: -m0 Conclusion: CDDA 100% Signature: C9A4827A3D19544AF17214CF7CC9F2263B2DFBBBFILE: 03. Би-2 - Вечная Призрачная Встречная.flac Size: 39933301 Hash: 9B521E3E4C5D8D6101418673AEAE1142 Accuracy: -m0 Conclusion: CDDA 100% Signature: 8BF9160292D45DBD8D63D72A6AA93A055C1F8480FILE: 02. Би-2 - Реки любви.flac Size: 30644491 Hash: 2DA00AD498FD8A64B8B12DEA18CC74C4 Accuracy: -m0 Conclusion: CDDA 100% Signature: A5CCDA893CC92BCA3A0EE99197C5646C2F758FDEFILE: 01. Би-2 - Скандал.flac Size: 26335253 Hash: 0AA617C9DD037EFDE383FB337C84094E Accuracy: -m0 Conclusion: CDDA 100% Signature: 11F91ECA2B9D03BCDD84B318F12D1064E902B55E


Трекер:  [ 01-Авг-2018 12:06 ]

  

Скачать .torrent

Размер .torrent файла 17 KB


Размер: 388 MB
Хэш (hash) релиза: 5b6f2f5cf8de7bc9c11d5436822034621066a833

Еще никто не оставлял запись к записи скачать торрент О чём говорят мужчины - 2010, FLAC . Будь первым!

!Обратная связь