Скачать через торрент музыку бесплатно без регистрации torrent

Статистика раздачи
Размер:  184 MB   |    Зарегистрирован:  4 месяца 13 дней   |    .torrent скачан:  37 раз   |   
Раздают:  1  
   
загрузка...
 
Автор Сообщение

Galfimbul

avatar Galfimbul


Anne-James Chaton / Événements 09
Жанр: Experimental, Electronic, Spoken Word
Носитель: CD
Год издания: 2011
Издатель (лейбл): Raster-Noton
Номер по каталогу: r-n 128
Аудиокодек: FLAC (*.flac)
Тип рипа: tracks+.cue
Битрейт аудио: lossless
Продолжительность: 00:36:14
Источник (релизер): RED
Наличие сканов в содержимом раздачи: нет

Треклист:
1. Événement N° 20 (04:37)
2. Événement N° 21 (01:37)
3. Événement N° 22 (03:51)
4. Événement N° 23 (04:08)
5. Événement N° 24 (03:17)
6. Événement N° 25 (04:24)
7. Événement N° 26 (03:54)
8. Événement N° 27 (04:52)
9. Événement N° 28 (03:17)
10. Barack Obama (00:15)
11. Sème Le Trouble (00:14)
12. Le Printemps De Téhéran (00:14)
13. Pop Is Dead (00:15)
14. De L'Empire (00:15)
15. Pina Bausch (00:16)
16. Avoir Peur (00:15)
17. Taliban (00:16)
18. Sommet De Pittsburgh (00:16)

Mastered at Studio Permutation, Paris, December 2010.

"Special thanks to Andy Moor (The Ex)".
Exact Audio Copy V1.3 from 2. September 2016

EAC extraction logfile from 29. July 2018, 12:49

Anne-James Chaton / Événements 09

Used drive : PLEXTOR DVDR PX-L890SA Adapter: 1 ID: 0

Read mode : SecureUtilize accurate stream : YesDefeat audio cache : YesMake use of C2 pointers : No

Read offset correction : 6Overread into Lead-In and Lead-Out : NoFill up missing offset samples with silence : YesDelete leading and trailing silent blocks : NoNull samples used in CRC calculations : YesUsed interface : Native Win32 interface for Win NT & 2000Gap handling : Appended to previous track

Used output format : User Defined EncoderSelected bitrate : 1024 kBit/sQuality : HighAdd ID3 tag : NoCommand line compressor : C:\Program Files (x86)\Exact Audio Copy\Flac\flac.exeAdditional command line options : -8 -V -T "ARTIST=%artist%" -T "TITLE=%title%" -T "ALBUM=%albumtitle%" -T "DATE=%year%" -T "TRACKNUMBER=%tracknr%" -T "GENRE=%genre%" -T "PERFORMER=%albuminterpret%" -T "COMPOSER=%composer%" %haslyrics%--tag-from-file=LYRICS="%lyricsfile%"%haslyrics% -T "ALBUMARTIST=%albumartist%" -T "DISCNUMBER=%cdnumber%" -T "TOTALDISCS=%totalcds%" -T "TOTALTRACKS=%numtracks%" -T "COMMENT=%comment%" %source% -o %dest%

TOC of the extracted CD

Track | Start | Length | Start sector | End sector --------------------------------------------------------- 1 | 0:00.00 | 4:36.60 | 0 | 20759 2 | 4:36.60 | 1:37.00 | 20760 | 28034 3 | 6:13.60 | 3:51.09 | 28035 | 45368 4 | 10:04.69 | 4:08.31 | 45369 | 63999 5 | 14:13.25 | 3:17.18 | 64000 | 78792 6 | 17:30.43 | 4:24.37 | 78793 | 98629 7 | 21:55.05 | 3:53.48 | 98630 | 116152 8 | 25:48.53 | 4:51.67 | 116153 | 138044 9 | 30:40.45 | 3:17.09 | 138045 | 152828 10 | 33:57.54 | 0:15.14 | 152829 | 153967 11 | 34:12.68 | 0:13.69 | 153968 | 155011 12 | 34:26.62 | 0:14.15 | 155012 | 156076 13 | 34:41.02 | 0:15.21 | 156077 | 157222 14 | 34:56.23 | 0:15.11 | 157223 | 158358 15 | 35:11.34 | 0:15.56 | 158359 | 159539 16 | 35:27.15 | 0:14.70 | 159540 | 160659 17 | 35:42.10 | 0:16.04 | 160660 | 161863 18 | 35:58.14 | 0:16.02 | 161864 | 163065

Track 1

Filename C:\Anne-James Chaton - Événements 09 (2011) [FLAC]\01 - Événement N° 20 Jeudi 22 Janvier 2009.wav

Pre-gap length 0:00:02.00

Peak level 99.8 % Extraction speed 3.4 X Track quality 100.0 % Test CRC 79C4B0D8 Copy CRC 79C4B0D8 Accurately ripped (confidence 5) [7BB65F1C] (AR v2) Copy OK

Track 2

Filename C:\Anne-James Chaton - Événements 09 (2011) [FLAC]\02 - Événement N° 21 Jeudi 19 Mars 2009.wav

Pre-gap length 0:00:01.98

Peak level 99.8 % Extraction speed 3.1 X Track quality 100.0 % Test CRC 4E4B7205 Copy CRC 4E4B7205 Accurately ripped (confidence 5) [49A97298] (AR v2) Copy OK

Track 3

Filename C:\Anne-James Chaton - Événements 09 (2011) [FLAC]\03 - Événement N° 22 Vendredi 12 Juin 2009.wav

Pre-gap length 0:00:02.00

Peak level 99.8 % Extraction speed 3.9 X Track quality 100.0 % Test CRC D837A354 Copy CRC D837A354 Accurately ripped (confidence 5) [C16538AB] (AR v2) Copy OK

Track 4

Filename C:\Anne-James Chaton - Événements 09 (2011) [FLAC]\04 - Événement N° 23 Vendredi 26 Juin 2009.wav

Pre-gap length 0:00:02.00

Peak level 99.8 % Extraction speed 4.3 X Track quality 100.0 % Test CRC 15B01CA9 Copy CRC 15B01CA9 Accurately ripped (confidence 5) [B237886D] (AR v2) Copy OK

Track 5

Filename C:\Anne-James Chaton - Événements 09 (2011) [FLAC]\05 - Événement N° 24 Mardi 30 Juin 2009.wav

Pre-gap length 0:00:02.00

Peak level 99.8 % Extraction speed 4.4 X Track quality 100.0 % Test CRC 5E6FB533 Copy CRC 5E6FB533 Accurately ripped (confidence 5) [D86F7572] (AR v2) Copy OK

Track 6

Filename C:\Anne-James Chaton - Événements 09 (2011) [FLAC]\06 - Événement N° 25 Mercredi 1 Juillet 2009.wav

Pre-gap length 0:00:02.00

Peak level 99.8 % Extraction speed 4.9 X Track quality 100.0 % Test CRC 90CBED47 Copy CRC 90CBED47 Accurately ripped (confidence 5) [21EB096E] (AR v2) Copy OK

Track 7

Filename C:\Anne-James Chaton - Événements 09 (2011) [FLAC]\07 - Événement N° 26 Mardi 28 Juillet 2009.wav

Pre-gap length 0:00:02.00

Peak level 99.8 % Extraction speed 5.0 X Track quality 100.0 % Test CRC A5F82614 Copy CRC A5F82614 Accurately ripped (confidence 5) [E3709221] (AR v2) Copy OK

Track 8

Filename C:\Anne-James Chaton - Événements 09 (2011) [FLAC]\08 - Événement N° 27 Vendredi 21 Aout 2009.wav

Pre-gap length 0:00:02.00

Peak level 99.8 % Extraction speed 5.5 X Track quality 100.0 % Test CRC 57095051 Copy CRC 57095051 Accurately ripped (confidence 5) [04113E34] (AR v2) Copy OK

Track 9

Filename C:\Anne-James Chaton - Événements 09 (2011) [FLAC]\09 - Événement N° 28 Jeudi 24 Septembre 2009.wav

Pre-gap length 0:00:02.00

Peak level 99.8 % Extraction speed 5.3 X Track quality 100.0 % Test CRC A9714AE7 Copy CRC A9714AE7 Accurately ripped (confidence 5) [487756BC] (AR v2) Copy OK

Track 10

Filename C:\Anne-James Chaton - Événements 09 (2011) [FLAC]\10 - Barack Obama.wav

Pre-gap length 0:00:02.00

Peak level 99.8 % Extraction speed 1.8 X Track quality 100.0 % Test CRC 5882BC4B Copy CRC 5882BC4B Accurately ripped (confidence 5) [1639C7BE] (AR v2) Copy OK

Track 11

Filename C:\Anne-James Chaton - Événements 09 (2011) [FLAC]\11 - Sème Le Trouble.wav

Pre-gap length 0:00:02.00

Peak level 99.8 % Extraction speed 0.8 X Track quality 99.2 % Test CRC BF116AA8 Copy CRC BF116AA8 Accurately ripped (confidence 5) [2B02F9E8] (AR v2) Copy OK

Track 12

Filename C:\Anne-James Chaton - Événements 09 (2011) [FLAC]\12 - Le Printemps De Téhéran.wav

Pre-gap length 0:00:02.00

Peak level 99.8 % Extraction speed 1.7 X Track quality 100.0 % Test CRC 81DE9C7D Copy CRC 81DE9C7D Accurately ripped (confidence 5) [29362460] (AR v2) Copy OK

Track 13

Filename C:\Anne-James Chaton - Événements 09 (2011) [FLAC]\13 - Pop is Dead.wav

Pre-gap length 0:00:02.00

Peak level 99.8 % Extraction speed 0.8 X Track quality 99.2 % Test CRC 85FB7D93 Copy CRC 85FB7D93 Accurately ripped (confidence 5) [0EC1B626] (AR v2) Copy OK

Track 14

Filename C:\Anne-James Chaton - Événements 09 (2011) [FLAC]\14 - De L'empire.wav

Pre-gap length 0:00:02.00

Peak level 99.8 % Extraction speed 1.8 X Track quality 100.0 % Test CRC B40ACD10 Copy CRC B40ACD10 Accurately ripped (confidence 5) [78F45D5B] (AR v2) Copy OK

Track 15

Filename C:\Anne-James Chaton - Événements 09 (2011) [FLAC]\15 - Pina Bausch.wav

Pre-gap length 0:00:02.00

Peak level 99.8 % Extraction speed 1.9 X Track quality 100.0 % Test CRC 5A51D6FE Copy CRC 5A51D6FE Accurately ripped (confidence 5) [E0D1B9F6] (AR v2) Copy OK

Track 16

Filename C:\Anne-James Chaton - Événements 09 (2011) [FLAC]\16 - Avoir Peur.wav

Pre-gap length 0:00:02.00

Peak level 99.8 % Extraction speed 0.8 X Track quality 99.2 % Test CRC 7AFEEB8B Copy CRC 7AFEEB8B Accurately ripped (confidence 5) [56A015BC] (AR v2) Copy OK

Track 17

Filename C:\Anne-James Chaton - Événements 09 (2011) [FLAC]\17 - Taliban.wav

Pre-gap length 0:00:02.00

Peak level 99.8 % Extraction speed 1.9 X Track quality 100.0 % Test CRC 54E9FBC7 Copy CRC 54E9FBC7 Accurately ripped (confidence 5) [C0DD55B2] (AR v2) Copy OK

Track 18

Filename C:\Anne-James Chaton - Événements 09 (2011) [FLAC]\18 - Sommet De Pittsburgh.wav

Pre-gap length 0:00:02.00

Peak level 99.8 % Extraction speed 1.9 X Track quality 100.0 % Test CRC 1776CF4E Copy CRC 1776CF4E Accurately ripped (confidence 5) [78E709F5] (AR v2) Copy OK

All tracks accurately ripped

No errors occurred

End of status report

---- CUETools DB Plugin V2.1.6

[CTDB TOCID: vMB5O9XXJDS_N_SZBpYDHkDVrdo-] foundSubmit result: vMB5O9XXJDS_N_SZBpYDHkDVrdo- has been confirmedTrack | CTDB Status 1 | (3/3) Accurately ripped 2 | (3/3) Accurately ripped 3 | (3/3) Accurately ripped 4 | (3/3) Accurately ripped 5 | (3/3) Accurately ripped 6 | (3/3) Accurately ripped 7 | (3/3) Accurately ripped 8 | (3/3) Accurately ripped 9 | (3/3) Accurately ripped 10 | (3/3) Accurately ripped 11 | (3/3) Accurately ripped 12 | (3/3) Accurately ripped 13 | (3/3) Accurately ripped 14 | (3/3) Accurately ripped 15 | (3/3) Accurately ripped 16 | (3/3) Accurately ripped 17 | (3/3) Accurately ripped 18 | (3/3) Accurately ripped

==== Log checksum BF7B192939A135BF5015551B08932EE60FE5537D211248FFC9782872A4C36296 ====
REM GENRE MiscREM DATE 2011REM DISCID E0087E12REM COMMENT "ExactAudioCopy v1.3"PERFORMER "Anne-James Chaton"TITLE "Événements 09"REM COMPOSER ""FILE "01 - Événement N° 20 Jeudi 22 Janvier 2009.wav" WAVE TRACK 01 AUDIO TITLE "Événement N° 20 Jeudi 22 Janvier 2009" PERFORMER "Anne-James Chaton" REM COMPOSER "" ISRC DEAS91000090 INDEX 01 00:00:00 TRACK 02 AUDIO TITLE "Événement N° 21 Jeudi 19 Mars 2009" PERFORMER "Anne-James Chaton" REM COMPOSER "" ISRC DEAS91000091 INDEX 00 04:34:61FILE "02 - Événement N° 21 Jeudi 19 Mars 2009.wav" WAVE INDEX 01 00:00:00 TRACK 03 AUDIO TITLE "Événement N° 22 Vendredi 12 Juin 2009" PERFORMER "Anne-James Chaton" REM COMPOSER "" ISRC DEAS91000092 INDEX 00 01:35:00FILE "03 - Événement N° 22 Vendredi 12 Juin 2009.wav" WAVE INDEX 01 00:00:00 TRACK 04 AUDIO TITLE "Événement N° 23 Vendredi 26 Juin 2009" PERFORMER "Anne-James Chaton" REM COMPOSER "" ISRC DEAS91000093 INDEX 00 03:49:09FILE "04 - Événement N° 23 Vendredi 26 Juin 2009.wav" WAVE INDEX 01 00:00:00 TRACK 05 AUDIO TITLE "Événement N° 24 Mardi 30 Juin 2009" PERFORMER "Anne-James Chaton" REM COMPOSER "" ISRC DEAS91000094 INDEX 00 04:06:31FILE "05 - Événement N° 24 Mardi 30 Juin 2009.wav" WAVE INDEX 01 00:00:00 TRACK 06 AUDIO TITLE "Événement N° 25 Mercredi 1 Juillet 2009" PERFORMER "Anne-James Chaton" REM COMPOSER "" ISRC DEAS91000095 INDEX 00 03:15:18FILE "06 - Événement N° 25 Mercredi 1 Juillet 2009.wav" WAVE INDEX 01 00:00:00 TRACK 07 AUDIO TITLE "Événement N° 26 Mardi 28 Juillet 2009" PERFORMER "Anne-James Chaton" REM COMPOSER "" ISRC DEAS91000096 INDEX 00 04:22:37FILE "07 - Événement N° 26 Mardi 28 Juillet 2009.wav" WAVE INDEX 01 00:00:00 TRACK 08 AUDIO TITLE "Événement N° 27 Vendredi 21 Aout 2009" PERFORMER "Anne-James Chaton" REM COMPOSER "" ISRC DEAS91000097 INDEX 00 03:51:48FILE "08 - Événement N° 27 Vendredi 21 Aout 2009.wav" WAVE INDEX 01 00:00:00 TRACK 09 AUDIO TITLE "Événement N° 28 Jeudi 24 Septembre 2009" PERFORMER "Anne-James Chaton" REM COMPOSER "" ISRC DEAS91000098 INDEX 00 04:49:67FILE "09 - Événement N° 28 Jeudi 24 Septembre 2009.wav" WAVE INDEX 01 00:00:00 TRACK 10 AUDIO TITLE "Barack Obama" PERFORMER "Anne-James Chaton" REM COMPOSER "" ISRC DEAS91000099 INDEX 00 03:15:09FILE "10 - Barack Obama.wav" WAVE INDEX 01 00:00:00 TRACK 11 AUDIO TITLE "Sème Le Trouble" PERFORMER "Anne-James Chaton" REM COMPOSER "" ISRC DEAS91000100 INDEX 00 00:13:14FILE "11 - Sème Le Trouble.wav" WAVE INDEX 01 00:00:00 TRACK 12 AUDIO TITLE "Le Printemps De Téhéran" PERFORMER "Anne-James Chaton" REM COMPOSER "" ISRC DEAS91000101 INDEX 00 00:11:69FILE "12 - Le Printemps De Téhéran.wav" WAVE INDEX 01 00:00:00 TRACK 13 AUDIO TITLE "Pop is Dead" PERFORMER "Anne-James Chaton" REM COMPOSER "" ISRC DEAS91000102 INDEX 00 00:12:15FILE "13 - Pop is Dead.wav" WAVE INDEX 01 00:00:00 TRACK 14 AUDIO TITLE "De L'empire" PERFORMER "Anne-James Chaton" REM COMPOSER "" ISRC DEAS91000103 INDEX 00 00:13:21FILE "14 - De L'empire.wav" WAVE INDEX 01 00:00:00 TRACK 15 AUDIO TITLE "Pina Bausch" PERFORMER "Anne-James Chaton" REM COMPOSER "" ISRC DEAS91000104 INDEX 00 00:13:11FILE "15 - Pina Bausch.wav" WAVE INDEX 01 00:00:00 TRACK 16 AUDIO TITLE "Avoir Peur" PERFORMER "Anne-James Chaton" REM COMPOSER "" ISRC DEAS91000105 INDEX 00 00:13:56FILE "16 - Avoir Peur.wav" WAVE INDEX 01 00:00:00 TRACK 17 AUDIO TITLE "Taliban" PERFORMER "Anne-James Chaton" REM COMPOSER "" ISRC DEAS91000106 INDEX 00 00:12:70FILE "17 - Taliban.wav" WAVE INDEX 01 00:00:00 TRACK 18 AUDIO TITLE "Sommet De Pittsburgh" PERFORMER "Anne-James Chaton" REM COMPOSER "" ISRC DEAS91000107 INDEX 00 00:14:04FILE "18 - Sommet De Pittsburgh.wav" WAVE INDEX 01 00:00:00


Трекер:  [ 01-Авг-2018 12:30 ]

  

Скачать .torrent

Размер .torrent файла 30 KB


Размер: 184 MB
Хэш (hash) релиза: 405fb3fba47dff8fc89b5f4a690239459d1fc190

Еще никто не оставлял запись к записи скачать торрент . Будь первым!

!Обратная связь