Скачать через торрент музыку бесплатно без регистрации torrent

Статистика раздачи
Размер:  235 MB   |    Зарегистрирован:  2 месяца 16 дней   |    .torrent скачан:  36 раз   |   
Раздают:  1  
   
загрузка...
 
Автор Сообщение

Galfimbul

avatar Galfimbul


Anne-James Chaton & Andy Moor / Le Journaliste
Жанр: Experimental, Electronic, Spoken Word
Носитель: CD
Год издания: 2008
Издатель (лейбл): Unsounds
Номер по каталогу: 16U
Аудиокодек: FLAC (*.flac)
Тип рипа: tracks+.cue
Битрейт аудио: lossless
Продолжительность: 00:47:35
Источник (релизер): RED
Наличие сканов в содержимом раздачи: нет

Треклист:
1 Le journaliste 6:07
2 Dans le monde 4:47
3 Portrait 5:53
4 Vous êtes riche 4:52
5 Frequencies 5:33
6 Scoop 7:02
7 Newspaper 7:36
8 Weather 5:45
Exact Audio Copy V1.3 from 2. September 2016

EAC extraction logfile from 4. November 2017, 13:10

Anne-James Chaton & Andy Moor / Le Journaliste

Used drive : ATAPI iHAS122 F Adapter: 1 ID: 0

Read mode : SecureUtilize accurate stream : YesDefeat audio cache : YesMake use of C2 pointers : No

Read offset correction : 6Overread into Lead-In and Lead-Out : NoFill up missing offset samples with silence : YesDelete leading and trailing silent blocks : NoNull samples used in CRC calculations : YesUsed interface : Native Win32 interface for Win NT & 2000Gap handling : Appended to previous track

Used output format : User Defined EncoderSelected bitrate : 1024 kBit/sQuality : HighAdd ID3 tag : NoCommand line compressor : C:\Program Files (x86)\Exact Audio Copy\Flac\flac.exeAdditional command line options : -8 -e -V -T "ARTIST=%artist%" -T "TITLE=%title%" -T "ALBUM=%albumtitle%" -T "DATE=%year%" -T "TRACKNUMBER=%tracknr%" -T "GENRE=%genre%" -T "PERFORMER=%albuminterpret%" -T "COMPOSER=%composer%" %haslyrics%--tag-from-file=LYRICS="%lyricsfile%"%haslyrics% -T "ALBUMARTIST=%albumartist%" -T "DISCNUMBER=%cdnumber%" -T "TOTALDISCS=%totalcds%" -T "TOTALTRACKS=%numtracks%" -T "COMMENT=%comment%" %source% -o %dest%

TOC of the extracted CD

Track | Start | Length | Start sector | End sector --------------------------------------------------------- 1 | 0:00.00 | 6:07.33 | 0 | 27557 2 | 6:07.33 | 4:46.50 | 27558 | 49057 3 | 10:54.08 | 5:52.52 | 49058 | 75509 4 | 16:46.60 | 4:52.09 | 75510 | 97418 5 | 21:38.69 | 5:32.54 | 97419 | 122372 6 | 27:11.48 | 7:02.15 | 122373 | 154037 7 | 34:13.63 | 7:36.36 | 154038 | 188273 8 | 41:50.24 | 5:44.51 | 188274 | 214124

Track 1

Filename D:\Rips\Anne-James Chaton & Andy Moor - Le Journaliste (2008) [FLAC] {16U}\01 - Le Journaliste.wav

Pre-gap length 0:00:02.00

Peak level 98.8 % Extraction speed 5.5 X Track quality 100.0 % Test CRC 598B982F Copy CRC 598B982F Track not present in AccurateRip database Copy OK

Track 2

Filename D:\Rips\Anne-James Chaton & Andy Moor - Le Journaliste (2008) [FLAC] {16U}\02 - Dans le Monde.wav

Pre-gap length 0:00:03.00

Peak level 98.8 % Extraction speed 6.1 X Track quality 100.0 % Test CRC A351F9E3 Copy CRC A351F9E3 Track not present in AccurateRip database Copy OK

Track 3

Filename D:\Rips\Anne-James Chaton & Andy Moor - Le Journaliste (2008) [FLAC] {16U}\03 - Portrait.wav

Pre-gap length 0:00:03.00

Peak level 98.8 % Extraction speed 6.8 X Track quality 100.0 % Test CRC 93AF3F47 Copy CRC 93AF3F47 Track not present in AccurateRip database Copy OK

Track 4

Filename D:\Rips\Anne-James Chaton & Andy Moor - Le Journaliste (2008) [FLAC] {16U}\04 - Vous Êtes Riche.wav

Pre-gap length 0:00:01.00

Peak level 98.8 % Extraction speed 7.3 X Track quality 100.0 % Test CRC 8CCA0031 Copy CRC 8CCA0031 Track not present in AccurateRip database Copy OK

Track 5

Filename D:\Rips\Anne-James Chaton & Andy Moor - Le Journaliste (2008) [FLAC] {16U}\05 - Frequencies.wav

Pre-gap length 0:00:03.00

Peak level 98.8 % Extraction speed 7.9 X Track quality 100.0 % Test CRC 5A6D8AF3 Copy CRC 5A6D8AF3 Track not present in AccurateRip database Copy OK

Track 6

Filename D:\Rips\Anne-James Chaton & Andy Moor - Le Journaliste (2008) [FLAC] {16U}\06 - Scoop.wav

Pre-gap length 0:00:02.00

Peak level 98.8 % Extraction speed 8.6 X Track quality 100.0 % Test CRC 6811544A Copy CRC 6811544A Track not present in AccurateRip database Copy OK

Track 7

Filename D:\Rips\Anne-James Chaton & Andy Moor - Le Journaliste (2008) [FLAC] {16U}\07 - Newspaper.wav

Pre-gap length 0:00:03.00

Peak level 98.8 % Extraction speed 8.2 X Track quality 99.9 % Test CRC A7E1191C Copy CRC A7E1191C Track not present in AccurateRip database Copy OK

Track 8

Filename D:\Rips\Anne-James Chaton & Andy Moor - Le Journaliste (2008) [FLAC] {16U}\08 - Weather.wav

Pre-gap length 0:00:03.00

Peak level 62.3 % Extraction speed 9.6 X Track quality 100.0 % Test CRC A8D50E29 Copy CRC A8D50E29 Track not present in AccurateRip database Copy OK

None of the tracks are present in the AccurateRip database

No errors occurred

End of status report

---- CUETools DB Plugin V2.1.6

[CTDB TOCID: XInZ9sHrJm__lI3eRntGtP.acVM-] foundSubmit result: XInZ9sHrJm__lI3eRntGtP.acVM- has been confirmedTrack | CTDB Status 1 | (2/2) Accurately ripped 2 | (2/2) Accurately ripped 3 | (2/2) Accurately ripped 4 | (2/2) Accurately ripped 5 | (2/2) Accurately ripped 6 | (2/2) Accurately ripped 7 | (2/2) Accurately ripped 8 | (2/2) Accurately ripped

==== Log checksum 128903889700DD9330D04B7AC223063D158EE895E9E3DB5DE23B633573593A66 ====
REM GENRE AvantgardeREM DATE 2008REM DISCID 550B2708REM COMMENT "ExactAudioCopy v1.3"PERFORMER "Anne-James Chaton & Andy Moor"TITLE "Le Journaliste"REM COMPOSER ""FILE "01 - Le Journaliste.wav" WAVE TRACK 01 AUDIO TITLE "Le Journaliste" PERFORMER "Anne-James Chaton & Andy Moor" REM COMPOSER "" INDEX 01 00:00:00 TRACK 02 AUDIO TITLE "Dans le Monde" PERFORMER "Anne-James Chaton & Andy Moor" REM COMPOSER "" INDEX 00 06:04:33FILE "02 - Dans le Monde.wav" WAVE INDEX 01 00:00:00 TRACK 03 AUDIO TITLE "Portrait" PERFORMER "Anne-James Chaton & Andy Moor" REM COMPOSER "" INDEX 00 04:43:50FILE "03 - Portrait.wav" WAVE INDEX 01 00:00:00 TRACK 04 AUDIO TITLE "Vous Etes Riche" PERFORMER "Anne-James Chaton & Andy Moor" REM COMPOSER "" INDEX 00 05:51:52FILE "04 - Vous Etes Riche.wav" WAVE INDEX 01 00:00:00 TRACK 05 AUDIO TITLE "Frequencies" PERFORMER "Anne-James Chaton & Andy Moor" REM COMPOSER "" INDEX 00 04:49:09FILE "05 - Frequencies.wav" WAVE INDEX 01 00:00:00 TRACK 06 AUDIO TITLE "Scoop" PERFORMER "Anne-James Chaton & Andy Moor" REM COMPOSER "" INDEX 00 05:30:54FILE "06 - Scoop.wav" WAVE INDEX 01 00:00:00 TRACK 07 AUDIO TITLE "Newspaper" PERFORMER "Anne-James Chaton & Andy Moor" REM COMPOSER "" INDEX 00 06:59:15FILE "07 - Newspaper.wav" WAVE INDEX 01 00:00:00 TRACK 08 AUDIO TITLE "Weather" PERFORMER "Anne-James Chaton & Andy Moor" REM COMPOSER "" INDEX 00 07:33:36FILE "08 - Weather.wav" WAVE INDEX 01 00:00:00


Трекер:  [ 01-Авг-2018 13:01 ]

  

Скачать .torrent

Размер .torrent файла 38 KB


Размер: 235 MB
Хэш (hash) релиза: 9bdb954bb3a78adcd71df0e7d69fce9d04f9f389

Еще никто не оставлял запись к записи скачать торрент . Будь первым!

!Обратная связь