Скачать через торрент музыку бесплатно без регистрации torrent

Статистика раздачи
Размер:  206 MB   |    Зарегистрирован:  4 месяца 8 дней   |    .torrent скачан:  47 раз   |   
Раздают:  1  
   
загрузка...
 
Автор Сообщение

Galfimbul

avatar Galfimbul


Anne-James Chaton with Alva Noto & Andy Moor / Décade
Жанр: Experimental, Minimal, Electronic, Spoken Word
Носитель: CD
Год издания: 2012
Издатель (лейбл): Raster-Noton
Номер по каталогу: R-N 135
Аудиокодек: FLAC (*.flac)
Тип рипа: tracks+.cue
Битрейт аудио: lossless
Продолжительность: 00:42:26
Источник (релизер): RED
Наличие сканов в содержимом раздачи: нет

Треклист:
1. Chapitre I: En Ville (10:35)
2. Chapitre II: US Border (1:01)
3. Chapitre III: Préparatifs (1:36)
4. Chapitre IV: In The ISS (7:07)
5. Chapitre V: Calculs (4:59)
6. Chapitre VI: On Stage (4:48)
7. Chapitre VII: Back In Town (4:04)
8. Chapitre VIII: Nihon No Tabi (8:16)
Exact Audio Copy V1.0 beta 3 from 29. August 2011

EAC extraction logfile from 24. March 2018, 20:51

Anne-James Chaton with Alva Noto and Andy Moor / Décade

Used drive : hp DVDWBD TS-LB23L Adapter: 1 ID: 0

Read mode : SecureUtilize accurate stream : YesDefeat audio cache : YesMake use of C2 pointers : No

Read offset correction : 6Overread into Lead-In and Lead-Out : NoFill up missing offset samples with silence : YesDelete leading and trailing silent blocks : NoNull samples used in CRC calculations : YesUsed interface : Native Win32 interface for Win NT & 2000Gap handling : Appended to previous track

Used output format : User Defined EncoderSelected bitrate : 1024 kBit/sQuality : HighAdd ID3 tag : NoCommand line compressor : C:\Program Files (x86)\Exact Audio Copy\FLAC\FLAC.EXEAdditional command line options : -8 -V -T "ARTIST=%artist%" -T "TITLE=%title%" -T "ALBUM=%albumtitle%" -T "DATE=%year%" -T "TRACKNUMBER=%tracknr%" -T "GENRE=%genre%" -T "PERFORMER=%albuminterpret%" -T "COMPOSER=%composer%" %haslyrics%--tag-from-file=LYRICS="%lyricsfile%"%haslyrics% -T "ALBUMARTIST=%albumartist%" -T "DISCNUMBER=%cdnumber%" -T "TOTALDISCS=%totalcds%" -T "TOTALTRACKS=%numtracks%" -T "COMMENT=%comment%" %source% -o %dest%

TOC of the extracted CD

Track | Start | Length | Start sector | End sector --------------------------------------------------------- 1 | 0:00.00 | 10:34.54 | 0 | 47603 2 | 10:34.54 | 1:01.37 | 47604 | 52215 3 | 11:36.16 | 1:36.29 | 52216 | 59444 4 | 13:12.45 | 7:07.12 | 59445 | 91481 5 | 20:19.57 | 4:58.62 | 91482 | 113893 6 | 25:18.44 | 4:47.68 | 113894 | 135486 7 | 30:06.37 | 4:04.12 | 135487 | 153798 8 | 34:10.49 | 8:15.44 | 153799 | 190967

Track 1

Filename C:\FLAC\Decade\01 Chapitre I- En Ville.wav

Pre-gap length 0:00:02.00

Peak level 100.0 % Extraction speed 1.6 X Track quality 100.0 % Test CRC 2D3BD745 Copy CRC 2D3BD745 Track not present in AccurateRip database Copy OK

Track 2

Filename C:\FLAC\Decade\02 Chapitre II- US Border.wav

Peak level 84.1 % Extraction speed 1.2 X Track quality 100.0 % Test CRC F545D11C Copy CRC F545D11C Track not present in AccurateRip database Copy OK

Track 3

Filename C:\FLAC\Decade\03 Chapitre III- Préparatifs.wav

Peak level 100.0 % Extraction speed 1.2 X Track quality 100.0 % Test CRC E40356A2 Copy CRC E40356A2 Track not present in AccurateRip database Copy OK

Track 4

Filename C:\FLAC\Decade\04 Chapitre IV- In the ISS.wav

Peak level 100.0 % Extraction speed 1.9 X Track quality 100.0 % Test CRC 2F0D0CC9 Copy CRC 2F0D0CC9 Track not present in AccurateRip database Copy OK

Track 5

Filename C:\FLAC\Decade\05 Chapitre V- Calculs.wav

Peak level 100.0 % Extraction speed 2.0 X Track quality 100.0 % Test CRC 57A5CFC7 Copy CRC 57A5CFC7 Track not present in AccurateRip database Copy OK

Track 6

Filename C:\FLAC\Decade\06 Chapitre VI- On Stage.wav

Peak level 98.5 % Extraction speed 2.1 X Track quality 100.0 % Test CRC AAE1D818 Copy CRC AAE1D818 Track not present in AccurateRip database Copy OK

Track 7

Filename C:\FLAC\Decade\07 Chapitre VII- Back in Town.wav

Peak level 100.0 % Extraction speed 2.1 X Track quality 100.0 % Test CRC 4586022F Copy CRC 4586022F Track not present in AccurateRip database Copy OK

Track 8

Filename C:\FLAC\Decade\08 Chapitre VIII- Nihon No Tabi.wav

Peak level 96.3 % Extraction speed 2.6 X Track quality 100.0 % Test CRC 17DEB23F Copy CRC 17DEB23F Track not present in AccurateRip database Copy OK

None of the tracks are present in the AccurateRip database

No errors occurred

End of status report

---- CUETools DB Plugin V2.1.4

[CTDB TOCID: OWzpTzwJ0PH6US0d8W5oADrY2i8-] disk not present in databaseSubmit result: OWzpTzwJ0PH6US0d8W5oADrY2i8- has been uploaded

==== Log checksum AFB1D12E0E3D4F984F37863370157B6F646CB51FF88402EF3ACA6EB928B882F4 ====

------------------------------------------------------------

Exact Audio Copy V1.0 beta 3 from 29. August 2011

EAC extraction logfile from 24. March 2018, 20:52

Anne-James Chaton with Alva Noto and Andy Moor / Décade

Used drive : hp DVDWBD TS-LB23L Adapter: 1 ID: 0

Read mode : SecureUtilize accurate stream : YesDefeat audio cache : YesMake use of C2 pointers : No

Read offset correction : 6Overread into Lead-In and Lead-Out : NoFill up missing offset samples with silence : YesDelete leading and trailing silent blocks : NoNull samples used in CRC calculations : YesUsed interface : Native Win32 interface for Win NT & 2000Gap handling : Appended to previous track

Used output format : User Defined EncoderSelected bitrate : 1024 kBit/sQuality : HighAdd ID3 tag : NoCommand line compressor : C:\Program Files (x86)\Exact Audio Copy\FLAC\FLAC.EXEAdditional command line options : -8 -V -T "ARTIST=%artist%" -T "TITLE=%title%" -T "ALBUM=%albumtitle%" -T "DATE=%year%" -T "TRACKNUMBER=%tracknr%" -T "GENRE=%genre%" -T "PERFORMER=%albuminterpret%" -T "COMPOSER=%composer%" %haslyrics%--tag-from-file=LYRICS="%lyricsfile%"%haslyrics% -T "ALBUMARTIST=%albumartist%" -T "DISCNUMBER=%cdnumber%" -T "TOTALDISCS=%totalcds%" -T "TOTALTRACKS=%numtracks%" -T "COMMENT=%comment%" %source% -o %dest%

TOC of the extracted CD

Track | Start | Length | Start sector | End sector --------------------------------------------------------- 1 | 0:00.00 | 10:34.54 | 0 | 47603 2 | 10:34.54 | 1:01.37 | 47604 | 52215 3 | 11:36.16 | 1:36.29 | 52216 | 59444 4 | 13:12.45 | 7:07.12 | 59445 | 91481 5 | 20:19.57 | 4:58.62 | 91482 | 113893 6 | 25:18.44 | 4:47.68 | 113894 | 135486 7 | 30:06.37 | 4:04.12 | 135487 | 153798 8 | 34:10.49 | 8:15.44 | 153799 | 190967

Track 1

Filename C:\FLAC\Decade\01 Chapitre I- En Ville.wav

Pre-gap length 0:00:02.00

Peak level 100.0 % Extraction speed 1.6 X Track quality 100.0 % Test CRC 2D3BD745 Copy CRC 2D3BD745 Track not present in AccurateRip database Copy OK

Track 2

Filename C:\FLAC\Decade\02 Chapitre II- US Border.wav

Peak level 84.1 % Extraction speed 1.2 X Track quality 100.0 % Test CRC F545D11C Copy CRC F545D11C Track not present in AccurateRip database Copy OK

Track 3

Filename C:\FLAC\Decade\03 Chapitre III- Préparatifs.wav

Peak level 100.0 % Extraction speed 1.2 X Track quality 100.0 % Test CRC E40356A2 Copy CRC E40356A2 Track not present in AccurateRip database Copy OK

Track 4

Filename C:\FLAC\Decade\04 Chapitre IV- In the ISS.wav

Peak level 100.0 % Extraction speed 1.9 X Track quality 100.0 % Test CRC 2F0D0CC9 Copy CRC 2F0D0CC9 Track not present in AccurateRip database Copy OK

Track 5

Filename C:\FLAC\Decade\05 Chapitre V- Calculs.wav

Peak level 100.0 % Extraction speed 2.0 X Track quality 100.0 % Test CRC 57A5CFC7 Copy CRC 57A5CFC7 Track not present in AccurateRip database Copy OK

Track 6

Filename C:\FLAC\Decade\06 Chapitre VI- On Stage.wav

Peak level 98.5 % Extraction speed 2.1 X Track quality 100.0 % Test CRC AAE1D818 Copy CRC AAE1D818 Track not present in AccurateRip database Copy OK

Track 7

Filename C:\FLAC\Decade\07 Chapitre VII- Back in Town.wav

Peak level 100.0 % Extraction speed 2.1 X Track quality 100.0 % Test CRC 4586022F Copy CRC 4586022F Track not present in AccurateRip database Copy OK

Track 8

Filename C:\FLAC\Decade\08 Chapitre VIII- Nihon No Tabi.wav

Peak level 96.3 % Extraction speed 2.6 X Track quality 100.0 % Test CRC 17DEB23F Copy CRC 17DEB23F Track not present in AccurateRip database Copy OK

None of the tracks are present in the AccurateRip database

No errors occurred

End of status report

---- CUETools DB Plugin V2.1.4

[CTDB TOCID: OWzpTzwJ0PH6US0d8W5oADrY2i8-] disk not present in databaseSubmit result: OWzpTzwJ0PH6US0d8W5oADrY2i8- has been uploaded

==== Log checksum CB5FDC1A4B2E43D6354BDACCF1166EE8780C21932F01AC489AF38C83334B6D83 ====
REM GENRE ElectronicREM DATE 2012REM DISCID 6409F208REM COMMENT "ExactAudioCopy v1.0b3"PERFORMER "Anne-James Chaton with Alva Noto and Andy Moor"TITLE "Décade"FILE "01 Chapitre I- En Ville.wav" WAVE TRACK 01 AUDIO TITLE "Chapitre I: En Ville" PERFORMER "Anne-James Chaton with Alva Noto and Andy Moor" ISRC DEAS91100140 INDEX 01 00:00:00FILE "02 Chapitre II- US Border.wav" WAVE TRACK 02 AUDIO TITLE "Chapitre II: US Border" PERFORMER "Anne-James Chaton with Alva Noto and Andy Moor" ISRC DEAS91100141 INDEX 01 00:00:00FILE "03 Chapitre III- Préparatifs.wav" WAVE TRACK 03 AUDIO TITLE "Chapitre III: Préparatifs" PERFORMER "Anne-James Chaton with Alva Noto and Andy Moor" ISRC DEAS91100141 INDEX 01 00:00:00FILE "04 Chapitre IV- In the ISS.wav" WAVE TRACK 04 AUDIO TITLE "Chapitre IV: In the ISS" PERFORMER "Anne-James Chaton with Alva Noto and Andy Moor" ISRC DEAS91100143 INDEX 01 00:00:00FILE "05 Chapitre V- Calculs.wav" WAVE TRACK 05 AUDIO TITLE "Chapitre V: Calculs" PERFORMER "Anne-James Chaton with Alva Noto and Andy Moor" ISRC DEAS91100144 INDEX 01 00:00:00FILE "06 Chapitre VI- On Stage.wav" WAVE TRACK 06 AUDIO TITLE "Chapitre VI: On Stage" PERFORMER "Anne-James Chaton with Alva Noto and Andy Moor" ISRC DEAS91100144 INDEX 01 00:00:00FILE "07 Chapitre VII- Back in Town.wav" WAVE TRACK 07 AUDIO TITLE "Chapitre VII: Back in Town" PERFORMER "Anne-James Chaton with Alva Noto and Andy Moor" ISRC DEAS91100146 INDEX 01 00:00:00FILE "08 Chapitre VIII- Nihon No Tabi.wav" WAVE TRACK 08 AUDIO TITLE "Chapitre VIII: Nihon No Tabi" PERFORMER "Anne-James Chaton with Alva Noto and Andy Moor" ISRC DEAS91100146 INDEX 01 00:00:00
The collaboration of the poet Anne-James Chaton, guitarist Andy Moor and musician Alva Noto is a dense and structured sound design, in which words, rhythms, and melodic loops inexorably blend. Anne-James Chaton reads almost a litany of portraits of people, built from lists of events and objective facts. The list is set in several languages, deliberately repetitive, and becomes a continuous bass line on which the music builds up. The electronic sound structures of Alva Noto perfectly complement the incursions of Andy Moor‘s experimental guitar playing. Gradually, the prose, the guitar and machines resonate, culminating in a powerful storm both musical and harmonious.

The text consists of a collection of twenty portraits written throughout the last decade. These almost photographic sketches are fed from textual blueprints which met the author at some point in time: bank statements, subway tickets, restaurant and shopping receipts are rewritten in prose, composed in simple subject-verb-complements. Each piece of information becomes a sentence; all sentences are short and compact, and in fast succession, they gradually shape a story. Portraits of a nurse, a teacher, an educator, a singer, an astronaut, and many others are placed end to end. The assembly of parallel lives creates a continuous thread, providing a path to follow both extreme banality and great adventures. Actions, places and events are melted in the instance of a third person singular with no indication which is its true identity. It is a disturbance with many possible escape routes of dispersion and emergence.

The listener encounters the speeches of German, English, Japanese and other languages which introduce multiple shifts of meaning. The voice becomes pure sensation; in conjoint with the textures and improvisations delivered by the other musicians, it can submerge to the background and re-emerge again, being pure sonic material stripped off of its communicative function. The significance of words is lost in pure performance and proceeds as yet another texture in the sound.


Трекер:  [ 01-Авг-2018 13:01 ]

  

Скачать .torrent

Размер .torrent файла 33 KB


Размер: 206 MB
Хэш (hash) релиза: a06334859376c290025913cd47fa86c2e178c555

Еще никто не оставлял запись к записи скачать торрент . Будь первым!

!Обратная связь