Скачать через торрент музыку бесплатно без регистрации torrent

Статистика раздачи
Размер:  289 MB   |    Зарегистрирован:  4 месяца 8 дней   |    .torrent скачан:  58 раз   |   
Раздают:  1  
   
загрузка...
 
Автор Сообщение

Galfimbul

avatar Galfimbul


FreqGen
Transmissions: Vol. 03



• Жанр: Ambient | Downtempo | Breaks
• Носитель: WEB
• Год издания: 2017
• Издатель (лейбл) FiXT Music
• Страна исполнителя (группы): USA
• Аудиокодек: FLAC (*.flac)
• Тип рипа: tracks
• Продолжительность: 00:56:29
• Источник (релизер): NTDMMANIAC ®
• WEB релиз: bandcamp
• Наличие сканов: front



◈ 01 - Data Corruption (00:03:42)
◈ 02 - Future 1992 (00:04:09)
◈ 03 - Cassini (00:07:15)
◈ 04 - Retrosexual (00:03:30)
◈ 05 - Lifeforms (00:03:19)
◈ 06 - 5823 (00:04:48)
◈ 07 - D.N.A. (00:04:12)
◈ 08 - Hold On (00:06:06)
◈ 09 - Surface Scanner (00:09:42)
◈ 10 - C.R.A. (00:05:33)
◈ 11 - Future 1992 (Instrumental) (00:04:09)

foobar2000 1.2.5 / Замер динамического диапазона (DR) 1.1.1Дата отчёта: 2018-07-06 00:28:05

--------------------------------------------------------------------------------Анализ: FreqGen / Transmissions: Vol. 03--------------------------------------------------------------------------------

DR Пики RMS Продолжительность трека--------------------------------------------------------------------------------DR2 -0.02 дБ -4.42 дБ 3:42 01-Data CorruptionDR5 0.00 дБ -6.83 дБ 4:09 02-Future 1992DR5 -0.01 дБ -9.36 дБ 7:16 03-CassiniDR3 -0.02 дБ -5.11 дБ 3:31 04-RetrosexualDR5 -0.10 дБ -6.58 дБ 3:20 05-LifeformsDR5 -0.07 дБ -6.94 дБ 4:48 06-5823DR4 0.00 дБ -5.79 дБ 4:12 07-D.N.A.DR7 0.00 дБ -10.42 дБ 6:06 08-Hold OnDR3 -0.01 дБ -5.44 дБ 9:43 09-Surface ScannerDR4 0.00 дБ -6.20 дБ 5:33 10-C.R.A.DR5 0.00 дБ -6.99 дБ 4:09 11-Future 1992 (Instrumental)--------------------------------------------------------------------------------

Количество треков: 11Реальные значения DR: DR5

Частота: 44100 ГцКаналов: 2Разрядность: 16Битрейт: 954 кбит/сКодек: FLAC================================================================================

-----------------------

DON'T MODIFY THIS FILE

-----------------------

PERFORMER: auCDtect Task Manager, ver. 1.6.0 RC1 build 1.6.0.1Copyright (c) 2008-2010 y-soft. All rights reservedhttp://y-soft.org

ANALYZER: auCDtect: CD records authenticity detector, version 0.8.2Copyright (c) 2004 Oleg Berngardt. All rights reserved.Copyright (c) 2004 Alexander Djourik. All rights reserved.

FILE: 11 - Future 1992 (Instrumental).flac Size: 30573955 Hash: 055AE521407A407310A9F4C98DAD8BEE Accuracy: -m0 Conclusion: CDDA 100% Signature: F1B471544AC06C1CE8AEBD222767B5673C1A9437FILE: 10 - C.R.A..flac Size: 26276570 Hash: AAC066F0D47BECD9958BFAF53EA6B3A8 Accuracy: -m0 Conclusion: CDDA 85% Signature: 5F9AF5599688F2A7031D1C2290E20DBA9EB007A2FILE: 09 - Surface Scanner.flac Size: 39273909 Hash: 6B93DA7E3332EF1D972E56BFB18F6B50 Accuracy: -m0 Conclusion: CDDA 100% Signature: AA53259D0EA5CD38E75EF4D201923F83BD17583BFILE: 08 - Hold On.flac Size: 28262753 Hash: 7A06E0B4EA5CF5A9552B51DC36652FEF Accuracy: -m0 Conclusion: CDDA 99% Signature: 6F2552B879EECA8B7DECD055E519F41BA9DBC7C7FILE: 07 - D.N.A..flac Size: 20910338 Hash: 1B16B44CF0560C508C231A833995E705 Accuracy: -m0 Conclusion: CDDA 86% Signature: F85DFE729660012746029FE7A9FFD8E984B66E74FILE: 06 - 5823.flac Size: 29524618 Hash: 81B2806B453A90204626A9C9D0064A61 Accuracy: -m0 Conclusion: MPEG 95% Signature: 0DB75F5F069A3C234C12A375E71182EC94DE1C54FILE: 05 - Lifeforms.flac Size: 14803669 Hash: 88718483100AF75EF60FA6AC58560139 Accuracy: -m0 Conclusion: CDDA 100% Signature: AAB61AFC8752F832F79842F7D9FEFF5F67335CB3FILE: 04 - Retrosexual.flac Size: 22134237 Hash: CE686BFF4C4D77507C6BAE59A1A5A617 Accuracy: -m0 Conclusion: CDDA 100% Signature: 8552DB5B13318F59AC7B2CBD43CCAF4DD9D5F5A0FILE: 03 - Cassini.flac Size: 36312739 Hash: D85E6459515EBAD48F6A09D167CD4F93 Accuracy: -m0 Conclusion: CDDA 100% Signature: E447C9DC2AC6145CF031D530A67D6A5B72DED0B2FILE: 02 - Future 1992.flac Size: 30640598 Hash: 634667D6DB1918CFEBDF9BDC4A7AA499 Accuracy: -m0 Conclusion: CDDA 100% Signature: D44C5FA788323B70FAB3B4047F2E212633A0627FFILE: 01 - Data Corruption.flac Size: 23105405 Hash: 9E4DD734594F9407E7C5A4C50884DC81 Accuracy: -m0 Conclusion: CDDA 99% Signature: CE912255F954ED95823C7D42C9C1341F856EB7D3




Трекер:  [ 01-Авг-2018 13:30 ]

  

Скачать .torrent

Размер .torrent файла 12 KB


Размер: 289 MB
Хэш (hash) релиза: 7a973de240bbef0d335455d3057b0e81735c8d61

Еще никто не оставлял запись к записи скачать торрент . Будь первым!

!Обратная связь