Скачать через торрент музыку бесплатно без регистрации torrent

Статистика раздачи
Размер:  305 MB   |    Зарегистрирован:  2 месяца 16 дней   |    .torrent скачан:  37 раз   |   
Раздают:  1  
   
загрузка...
 
Автор Сообщение

Galfimbul

avatar Galfimbul


Anne-James Chaton, Thurston Moore, Andy Moor / Heretics
Жанр: Experimental, Electronic, Spoken Word
Носитель: CD
Год издания: 2016
Издатель (лейбл): Unsounds
Номер по каталогу: 54U
Аудиокодек: FLAC (*.flac)
Тип рипа: tracks+.cue
Битрейт аудио: lossless
Продолжительность: 01:07:01
Источник (релизер): RED
Наличие сканов в содержимом раздачи: нет

Треклист:
 01 Tout ce que je sais
 02 Clair obscur
 03 Érétik
 04 Casino Rabelaisien
 05 Dull Jack
 06 The Things That Belong to William
 07 Heidsieck’s Chords
 08 Coquins coquettes et cocus
 09 Poetry Must Be Made by All
 10 Le songe de Ludwig
 11 Concoctions
X Lossless Decoder version 20161007 (149.3)

XLD extraction logfile from 2017-01-31 09:05:51 +0100

Anne-James Chaton, Thurston Moore, Andy Moor / Heretics

Used drive : HL-DT-ST DVDRW GA32N (revision KE06)Media type : Pressed CD

Ripper mode : XLD Secure RipperDisable audio cache : OK for the drive with a cache less than 1375KiBMake use of C2 pointers : NORead offset correction : 103Max retry count : 100Gap status : Analyzed, Appended (except HTOA)

TOC of the extracted CD Track | Start | Length | Start sector | End sector --------------------------------------------------------- 1 | 00:00:00 | 06:40:46 | 0 | 30045 2 | 06:40:46 | 05:14:18 | 30046 | 53613 3 | 11:54:64 | 04:43:41 | 53614 | 74879 4 | 16:38:30 | 05:35:68 | 74880 | 100072 5 | 22:14:23 | 07:13:20 | 100073 | 132567 6 | 29:27:43 | 07:53:10 | 132568 | 168052 7 | 37:20:53 | 04:20:70 | 168053 | 187622 8 | 41:41:48 | 06:50:53 | 187623 | 218425 9 | 48:32:26 | 06:08:43 | 218426 | 246068 10 | 54:40:69 | 05:28:00 | 246069 | 270668 11 | 60:08:69 | 06:51:64 | 270669 | 301557

AccurateRip Summary Disc not found in AccurateRip DB.

All Tracks Album gain : -4.84 dB Peak : 0.963379 Statistics Read error : 0 Jitter error (maybe fixed) : 0 Retry sector count : 0 Damaged sector count : 0

Track 01 Filename : /XLD/Anne-James Chaton, Thurston Moore, Andy Moor - 2016 - Heretics [FLAC]/01 Tout ce que je sais.flac Pre-gap length : 00:02:00

Track gain : -4.31 dB Peak : 0.963348 CRC32 hash (test run) : FEA1064E CRC32 hash : FEA1064E CRC32 hash (skip zero) : 8BB53604 AccurateRip v1 signature : 0CCDCACE AccurateRip v2 signature : 9F61E08D ->Track not present in AccurateRip database. Statistics Read error : 0 Jitter error (maybe fixed) : 0 Retry sector count : 0 Damaged sector count : 0

Track 02 Filename : /XLD/Anne-James Chaton, Thurston Moore, Andy Moor - 2016 - Heretics [FLAC]/02 Clair obscur.flac Pre-gap length : 00:00:48

Track gain : -4.01 dB Peak : 0.963348 CRC32 hash (test run) : 7AE4882B CRC32 hash : 7AE4882B CRC32 hash (skip zero) : 62099C09 AccurateRip v1 signature : 865BBF7D AccurateRip v2 signature : B2581CD0 ->Track not present in AccurateRip database. Statistics Read error : 0 Jitter error (maybe fixed) : 0 Retry sector count : 0 Damaged sector count : 0

Track 03 Filename : /XLD/Anne-James Chaton, Thurston Moore, Andy Moor - 2016 - Heretics [FLAC]/03 Érétik.flac Pre-gap length : 00:00:56

Track gain : -3.43 dB Peak : 0.963226 CRC32 hash (test run) : 6D8248A1 CRC32 hash : 6D8248A1 CRC32 hash (skip zero) : BE298C65 AccurateRip v1 signature : C836D8DB AccurateRip v2 signature : C3AD82B4 ->Track not present in AccurateRip database. Statistics Read error : 0 Jitter error (maybe fixed) : 0 Retry sector count : 0 Damaged sector count : 0

Track 04 Filename : /XLD/Anne-James Chaton, Thurston Moore, Andy Moor - 2016 - Heretics [FLAC]/04 Casino Rabelaisien.flac Pre-gap length : 00:00:19

Track gain : -4.53 dB Peak : 0.963379 CRC32 hash (test run) : D442F310 CRC32 hash : D442F310 CRC32 hash (skip zero) : E338786C AccurateRip v1 signature : A58A55B6 AccurateRip v2 signature : 9C1FCE11 ->Track not present in AccurateRip database. Statistics Read error : 0 Jitter error (maybe fixed) : 0 Retry sector count : 0 Damaged sector count : 0

Track 05 Filename : /XLD/Anne-James Chaton, Thurston Moore, Andy Moor - 2016 - Heretics [FLAC]/05 Dull Jack.flac Pre-gap length : 00:00:01

Track gain : -5.66 dB Peak : 0.963318 CRC32 hash (test run) : 1ABE3F99 CRC32 hash : 1ABE3F99 CRC32 hash (skip zero) : E3C63085 AccurateRip v1 signature : F75C771E AccurateRip v2 signature : E91EF72B ->Track not present in AccurateRip database. Statistics Read error : 0 Jitter error (maybe fixed) : 0 Retry sector count : 0 Damaged sector count : 0

Track 06 Filename : /XLD/Anne-James Chaton, Thurston Moore, Andy Moor - 2016 - Heretics [FLAC]/06 The Things That Belong to William.flac Pre-gap length : 00:00:45

Track gain : -3.78 dB Peak : 0.963379 CRC32 hash (test run) : 137212C0 CRC32 hash : 137212C0 CRC32 hash (skip zero) : AFF02AF8 AccurateRip v1 signature : 12457ED4 AccurateRip v2 signature : 8085C36B ->Track not present in AccurateRip database. Statistics Read error : 0 Jitter error (maybe fixed) : 0 Retry sector count : 0 Damaged sector count : 0

Track 07 Filename : /XLD/Anne-James Chaton, Thurston Moore, Andy Moor - 2016 - Heretics [FLAC]/07 Heidsieck's Chords.flac Pre-gap length : 00:01:29

Track gain : -6.04 dB Peak : 0.963348 CRC32 hash (test run) : 5AC4D131 CRC32 hash : 5AC4D131 CRC32 hash (skip zero) : B67EBFF3 AccurateRip v1 signature : 19FC65B0 AccurateRip v2 signature : 511AFCCF ->Track not present in AccurateRip database. Statistics Read error : 0 Jitter error (maybe fixed) : 0 Retry sector count : 0 Damaged sector count : 0

Track 08 Filename : /XLD/Anne-James Chaton, Thurston Moore, Andy Moor - 2016 - Heretics [FLAC]/08 Coquins coquettes et cocus.flac Pre-gap length : 00:01:23

Track gain : -4.50 dB Peak : 0.963379 CRC32 hash (test run) : 3E6B4AF8 CRC32 hash : 3E6B4AF8 CRC32 hash (skip zero) : 583F517C AccurateRip v1 signature : 33F2A722 AccurateRip v2 signature : C796F525 ->Track not present in AccurateRip database. Statistics Read error : 0 Jitter error (maybe fixed) : 0 Retry sector count : 0 Damaged sector count : 0

Track 09 Filename : /XLD/Anne-James Chaton, Thurston Moore, Andy Moor - 2016 - Heretics [FLAC]/09 Poetry Must Be Made by All.flac Pre-gap length : 00:01:15

Track gain : -3.60 dB Peak : 0.963379 CRC32 hash (test run) : F6B216B6 CRC32 hash : F6B216B6 CRC32 hash (skip zero) : 6BFB5A22 AccurateRip v1 signature : 5D4BF246 AccurateRip v2 signature : 59541A6B ->Track not present in AccurateRip database. Statistics Read error : 0 Jitter error (maybe fixed) : 0 Retry sector count : 0 Damaged sector count : 0

Track 10 Filename : /XLD/Anne-James Chaton, Thurston Moore, Andy Moor - 2016 - Heretics [FLAC]/10 Le songe de Ludwig.flac Pre-gap length : 00:01:56

Track gain : -3.10 dB Peak : 0.963348 CRC32 hash (test run) : 30B09F36 CRC32 hash : 30B09F36 CRC32 hash (skip zero) : C94371B9 AccurateRip v1 signature : 78BFF548 AccurateRip v2 signature : DFB7825C ->Track not present in AccurateRip database. Statistics Read error : 0 Jitter error (maybe fixed) : 0 Retry sector count : 0 Damaged sector count : 0

Track 11 Filename : /XLD/Anne-James Chaton, Thurston Moore, Andy Moor - 2016 - Heretics [FLAC]/11 Concoctions.flac Pre-gap length : 00:01:56

Track gain : -2.93 dB Peak : 0.963379 CRC32 hash (test run) : ECC3D3A3 CRC32 hash : ECC3D3A3 CRC32 hash (skip zero) : FACE118E AccurateRip v1 signature : 5A1602C9 AccurateRip v2 signature : 91EF78F7 ->Track not present in AccurateRip database. Statistics Read error : 0 Jitter error (maybe fixed) : 0 Retry sector count : 0 Damaged sector count : 0

No errors occurred

End of status report

-----BEGIN XLD SIGNATURE-----s2OxCy6437byKbzBrx9J7Rol07.4h20rKHCXzliyc666EAIJKq6chTk7_AZQlIMBAMf6fU.DlFK6ErMPtodJ.ceV01YUxhojiwd9Zeq-----END XLD SIGNATURE-----
TITLE "Heretics"PERFORMER "Anne-James Chaton, Thurston Moore, Andy Moor"REM DATE "2016"REM DISCID 780FB40BREM REPLAYGAIN_ALBUM_GAIN -4.84 dBREM REPLAYGAIN_ALBUM_PEAK 0.963379FILE "01 Tout ce que je sais.flac" WAVE TRACK 01 AUDIO TITLE "Tout ce que je sais" REM REPLAYGAIN_TRACK_GAIN -4.31 dB REM REPLAYGAIN_TRACK_PEAK 0.963348 INDEX 01 00:00:00 TRACK 02 AUDIO TITLE "Clair obscur" REM REPLAYGAIN_TRACK_GAIN -4.01 dB REM REPLAYGAIN_TRACK_PEAK 0.963348 INDEX 00 06:39:73FILE "02 Clair obscur.flac" WAVE INDEX 01 00:00:00 TRACK 03 AUDIO TITLE "Érétik" REM REPLAYGAIN_TRACK_GAIN -3.43 dB REM REPLAYGAIN_TRACK_PEAK 0.963226 INDEX 00 05:13:37FILE "03 Érétik.flac" WAVE INDEX 01 00:00:00 TRACK 04 AUDIO TITLE "Casino Rabelaisien" REM REPLAYGAIN_TRACK_GAIN -4.53 dB REM REPLAYGAIN_TRACK_PEAK 0.963379 INDEX 00 04:43:22FILE "04 Casino Rabelaisien.flac" WAVE INDEX 01 00:00:00 TRACK 05 AUDIO TITLE "Dull Jack" REM REPLAYGAIN_TRACK_GAIN -5.66 dB REM REPLAYGAIN_TRACK_PEAK 0.963318 INDEX 00 05:35:67FILE "05 Dull Jack.flac" WAVE INDEX 01 00:00:00 TRACK 06 AUDIO TITLE "The Things That Belong to William" REM REPLAYGAIN_TRACK_GAIN -3.78 dB REM REPLAYGAIN_TRACK_PEAK 0.963379 INDEX 00 07:12:50FILE "06 The Things That Belong to William.flac" WAVE INDEX 01 00:00:00 TRACK 07 AUDIO TITLE "Heidsieck's Chords" REM REPLAYGAIN_TRACK_GAIN -6.04 dB REM REPLAYGAIN_TRACK_PEAK 0.963348 INDEX 00 07:51:56FILE "07 Heidsieck's Chords.flac" WAVE INDEX 01 00:00:00 TRACK 08 AUDIO TITLE "Coquins coquettes et cocus" REM REPLAYGAIN_TRACK_GAIN -4.50 dB REM REPLAYGAIN_TRACK_PEAK 0.963379 INDEX 00 04:19:47FILE "08 Coquins coquettes et cocus.flac" WAVE INDEX 01 00:00:00 TRACK 09 AUDIO TITLE "Poetry Must Be Made by All" REM REPLAYGAIN_TRACK_GAIN -3.60 dB REM REPLAYGAIN_TRACK_PEAK 0.963379 INDEX 00 06:49:38FILE "09 Poetry Must Be Made by All.flac" WAVE INDEX 01 00:00:00 TRACK 10 AUDIO TITLE "Le songe de Ludwig" REM REPLAYGAIN_TRACK_GAIN -3.10 dB REM REPLAYGAIN_TRACK_PEAK 0.963348 INDEX 00 06:06:62FILE "10 Le songe de Ludwig.flac" WAVE INDEX 01 00:00:00 TRACK 11 AUDIO TITLE "Concoctions" REM REPLAYGAIN_TRACK_GAIN -2.93 dB REM REPLAYGAIN_TRACK_PEAK 0.963379 INDEX 00 05:26:19FILE "11 Concoctions.flac" WAVE INDEX 01 00:00:00
Heretics is a series of portraits of radical heretical figures found throughout the history of schismatic thinking.Heretics like Caravaggio, William Burroughs, Jose Mujica, Marquis de Sade and Johnny Rotten, fascinated the artists. These influential figures are presented here in the form of poetic texts and catchy melodies combined with experimental noise.

With the addition of ex-Sonic Youth guitarist, singer and songwriter Thurston Moore, Anne-James Chaton and Andy Moors more than a decade long collaboration becomes an exciting trio. They researched and created the material for Heretics during a residency in the French port of St Nazaire, in July 2014. They used voice, guitars and electronics in solo, duo or trio, to collaboratively explore their ideas and co-write texts and music.

Moore and Moor both emerged from the punk/post-punk scene albeit on different continents. This familiarity with each others background and music meant they were able to work at an intuitive fast pace during the making of these pieces, and subsequent recordings. Chatons powerful delivery and hypnotic style holds its own amidst the two guitarists building a rich wall of sound, melody and noise around him. Chaton and Moores contrasting voices and choice of words ring out in the tradition of non-conformist poetry. Shaped by jagged distorted guitars and penetrating chords, the trios combination of guitar and poetry evokes a new genre.


Трекер:  [ 01-Авг-2018 13:30 ]

  

Скачать .torrent

Размер .torrent файла 49 KB


Размер: 305 MB
Хэш (hash) релиза: 0612e90565fbf296ec9ec9b362fa92541c811645

Еще никто не оставлял запись к записи скачать торрент . Будь первым!

!Обратная связь