Скачать через торрент музыку бесплатно без регистрации torrent

Статистика раздачи
Размер:  276 MB   |    Зарегистрирован:  2 месяца 21 день   |    .torrent скачан:  44 раза   |   
Раздают:  1  
   
загрузка...
 
Автор Сообщение

Galfimbul

avatar Galfimbul


Off Land
Mineral Echoes



• Жанр: Ambient | Drone | Modern Classical
• Носитель: WEB
• Год издания: 2018
• Издатель (лейбл) Stasis Recordings
• Страна исполнителя (группы): USA
• Аудиокодек: FLAC (*.flac)
• Тип рипа: tracks
• Продолжительность: 00:49:13
• Источник (релизер): NTDMMANIAC ®
• WEB релиз: bandcamp
• Наличие сканов: front



◈ 01 - Xenotime (00:10:49)
◈ 02 - Zircon (00:09:48)
◈ 03 - Galaxite (00:10:23)
◈ 04 - Galena (00:09:57)
◈ 05 - Larimar (00:08:13)

foobar2000 1.2.5 / Замер динамического диапазона (DR) 1.1.1Дата отчёта: 2018-06-04 17:18:01

--------------------------------------------------------------------------------Анализ: Off Land / Mineral Echoes--------------------------------------------------------------------------------

DR Пики RMS Продолжительность трека--------------------------------------------------------------------------------DR11 -0.13 дБ -14.22 дБ 10:49 01-XenotimeDR11 -0.20 дБ -14.15 дБ 9:49 02-ZirconDR11 -0.13 дБ -14.18 дБ 10:24 03-GalaxiteDR13 -0.09 дБ -15.69 дБ 9:57 04-GalenaDR11 -0.96 дБ -14.85 дБ 8:14 05-Larimar--------------------------------------------------------------------------------

Количество треков: 5Реальные значения DR: DR11

Частота: 44100 ГцКаналов: 2Разрядность: 16Битрейт: 781 кбит/сКодек: FLAC================================================================================

-----------------------

DON'T MODIFY THIS FILE

-----------------------

PERFORMER: auCDtect Task Manager, ver. 1.6.0 RC1 build 1.6.0.1Copyright (c) 2008-2010 y-soft. All rights reservedhttp://y-soft.org

ANALYZER: auCDtect: CD records authenticity detector, version 0.8.2Copyright (c) 2004 Oleg Berngardt. All rights reserved.Copyright (c) 2004 Alexander Djourik. All rights reserved.

FILE: 05 - Larimar.flac Size: 48361299 Hash: 1D55A69F2840A725EECC4AC96F5E7B10 Accuracy: -m0 Conclusion: CDDA 100% Signature: 601654519ADF395E6316F553D73626A5C0158850FILE: 04 - Galena.flac Size: 53977052 Hash: C38661199B302A350787F1B74F7A9077 Accuracy: -m0 Conclusion: ??? Signature: 6C0061913D822D796DE09783E18C77169EA2ED20FILE: 03 - Galaxite.flac Size: 70320040 Hash: 45B5F6F2AE51604DBB7558118A0CB1DB Accuracy: -m0 Conclusion: CDDA 100% Signature: B972E6D03A2421B2F6C8BBE9E9E5399EFBCF3B90FILE: 02 - Zircon.flac Size: 47751456 Hash: 5035E44600C10EC6D3EC1FC778D77B83 Accuracy: -m0 Conclusion: CDDA 100% Signature: 3CDF0EF1063B788DA51E53687285684EBEE3B0C7FILE: 01 - Xenotime.flac Size: 69028665 Hash: 67FFB7623CD89B646640A450BE8E5C08 Accuracy: -m0 Conclusion: CDDA 100% Signature: AD3C3A21AAB07E2A82E6962EC333102642361EF7



Трекер:  [ 01-Авг-2018 14:30 ]

  

Скачать .torrent

Размер .torrent файла 11 KB


Размер: 276 MB
Хэш (hash) релиза: e2bab81f5ebd8d21417e0ecbfaa0c489a54004dc

Еще никто не оставлял запись к записи скачать торрент . Будь первым!

!Обратная связь