Скачать через торрент [VIDEO] Геошторм Geostorm бесплатно русская версия torrent активатор

Статистика раздачи
Размер:  434 MB   |    Зарегистрирован:  4 месяца 11 дней   |    .torrent скачан:  32 раза   |   
Раздают:  1  
   
загрузка...
 
Автор Сообщение

Galfimbul

avatar Galfimbul


Геошторм / Geostorm


Год выпуска: 2017
Страна: США
Жанр: фантастика, боевик, триллер
Продолжительность: 01:49:07
Перевод: русский Профессиональный (полное дублирование) Blu-Ray EUR
Субтитры: нет
Режиссер: Дин Девлин / Dean Devlin
В ролях: Джерард Батлер, Джим Стёрджесс, Эбби Корниш, Александра Мария Лара, Дэниэл Ву, Эухенио Дербес, Амр Вакед, Эдеперо Одуйе, Энди Гарсиа, Эд Харрис, Роберт Шиэн, Ричард Шифф, Мэр Уиннингхэм и другие .
Описание: После беспрецедентной серии стихийных бедствий, обрушившихся на нашу планету, лидеры мировых держав объединили усилия, чтобы создать разветвленную сеть орбитальных спутников по контролю над климатом для предотвращения природных катаклизмов. Но что-то пошло не так — система, выстроенная для защиты Земли, теперь угрожает ей. Начинается гонка наперегонки со временем, в которой надо успеть обнаружить реальную угрозу до того, как всемирный Геошторм сотрёт с лица Земли всё живое .
Релиз группы

Качество: BDRip / рип с Blu-ray disc 1080p [EUR]
Формат: MP4
Видео кодек: XviD
Аудио кодек: AAC
Видео: 480x200 AR:2.40 425 kbps 23.976 fps
Аудио: [Russian] 2ch 48 kHz 128 kbps - [Dub] Профессиональный (полное дублирование) Blu-Ray EUR
GeneralComplete name : K:\Torrents\Geostorm.2017.BDRip.XviD.480x.rip by Frost O.S.mp4Format : MPEG-4Format profile : 3GPP Media Release 5Codec ID : 3gp5 (isom/3gp5/3gp4/mp41/mp42)File size : 434 MiBDuration : 1 h 49 minOverall bit rate mode : VariableOverall bit rate : 556 kb/sEncoded date : UTC 2018-08-01 13:11:54Tagged date : UTC 2018-08-01 13:11:54

VideoID : 1Format : MPEG-4 VisualFormat profile : Advanced Simple@L5Format settings : BVOP / Custom MatrixFormat settings, BVOP : YesFormat settings, QPel : NoFormat settings, GMC : No warppointsFormat settings, Matrix : CustomCodec ID : mp4v-20Duration : 1 h 49 minBit rate mode : VariableBit rate : 425 kb/sMaximum bit rate : 3 560 kb/sWidth : 480 pixelsHeight : 200 pixelsDisplay aspect ratio : 2.40:1Frame rate mode : VariableFrame rate : 23.976 (24000/1001) FPSMinimum frame rate : 11.988 FPSMaximum frame rate : 23.976 FPSColor space : YUVChroma subsampling : 4:2:0Bit depth : 8 bitsScan type : ProgressiveCompression mode : LossyBits/(Pixel*Frame) : 0.185Stream size : 331 MiB (76%)Title : avi@GPAC0.5.2-DEV-rev248-g39d5978-masterWriting library : XviD 1.2.1 (UTC 2008-12-04)Encoded date : UTC 2018-08-01 10:28:12Tagged date : UTC 2018-08-01 13:11:57

AudioID : 2Format : AACFormat/Info : Advanced Audio CodecFormat profile : LCCodec ID : mp4a-40-2Duration : 1 h 49 minBit rate mode : VariableBit rate : 128 kb/sMaximum bit rate : 134 kb/sChannel(s) : 2 channelsChannel positions : Front: L RSampling rate : 48.0 kHzFrame rate : 46.875 FPS (1024 SPF)Compression mode : LossyStream size : 99.9 MiB (23%)Title : Russian / Dub, Blu-Ray EUREncoded date : UTC 2018-08-01 12:54:48Tagged date : UTC 2018-08-01 13:11:57


Трекер:  [ 01-Авг-2018 16:36 ]

  

Скачать .torrent

Размер .torrent файла 17 KB


Размер: 434 MB
Хэш (hash) релиза: 5e2d2960df9662f18c6e8c575c178375ae974afd

Еще никто не оставлял запись к записи скачать торрент [VIDEO] Геошторм Geostorm . Будь первым!

!Обратная связь