Скачать через торрент [VIDEO] Геошторм Geostorm бесплатно русская версия torrent активатор

Статистика раздачи
Размер:  2.2 GB   |    Зарегистрирован:  3 месяца 16 дней   |    .torrent скачан:  37 раз   |   
Раздают:  1  
   
загрузка...
 
Автор Сообщение

Galfimbul

avatar Galfimbul


Геошторм / Geostorm


Год выпуска: 2017
Страна: США
Жанр: фантастика, боевик, триллер
Продолжительность: 01:49:07
Перевод №1: русский Профессиональный (полное дублирование) Blu-Ray EUR
Перевод №2: украинский Профессиональный (полное дублирование) студия Postmodern
Оригинальная дорожка: Есть
Субтитры: русские (форсированные), (полные), украинские (форсированные), английские (форс.-хардсаб), (полные), (SDH)
Режиссер: Дин Девлин / Dean Devlin
В ролях: Джерард Батлер, Джим Стёрджесс, Эбби Корниш, Александра Мария Лара, Дэниэл Ву, Эухенио Дербес, Амр Вакед, Эдеперо Одуйе, Энди Гарсиа, Эд Харрис, Роберт Шиэн, Ричард Шифф, Мэр Уиннингхэм и другие .
Описание: После беспрецедентной серии стихийных бедствий, обрушившихся на нашу планету, лидеры мировых держав объединили усилия, чтобы создать разветвленную сеть орбитальных спутников по контролю над климатом для предотвращения природных катаклизмов. Но что-то пошло не так — система, выстроенная для защиты Земли, теперь угрожает ей. Начинается гонка наперегонки со временем, в которой надо успеть обнаружить реальную угрозу до того, как всемирный Геошторм сотрёт с лица Земли всё живое .
Релиз группы

Качество: BDRip / рип с Blu-ray disc 1080p [EUR]
Формат: MP4
Видео кодек: H.264
Аудио кодек: AAC
Видео: 1280x532 AR:2.41 2500 kbps 23.976 fps
Аудио №1: [Russian] 2ch 48 kHz 128 kbps - [Dub] Профессиональный (полное дублирование) Blu-Ray EUR
Аудио №2: [Ukrainian] 2ch 48 kHz 128 kbps - [Dub] Профессиональный (полное дублирование) студия Postmodern
Аудио №3: [English] 2ch 48 kHz 128 kbps - Original
avs [info]: 1280x532p 1:1 @ 24000/1001 fps (cfr)
x264 [info]: using SAR=1/1
x264 [info]: using cpu capabilities: MMX2 SSE2Fast SSSE3 SSE4.2 AVX FMA3 BMI2 AVX2
x264 [info]: profile High, level 4.1

x264 [info]: frame I:1489 Avg QP:17.14 size: 88750
x264 [info]: frame P:41607 Avg QP:20.91 size: 24640
x264 [info]: frame B:113879 Avg QP:23.07 size: 7806
x264 [info]: consecutive B-frames: 5.4% 8.2% 10.5% 18.6% 15.7% 34.6% 4.1% 1.2% 0.6% 0.6% 0.4%
x264 [info]: mb I I16..4: 5.5% 76.0% 18.5%
x264 [info]: mb P I16..4: 1.6% 9.6% 2.0% P16..4: 36.3% 37.5% 9.0% 0.0% 0.0% skip: 4.0%
x264 [info]: mb B I16..4: 0.1% 1.0% 0.2% B16..8: 38.9% 17.5% 2.2% direct: 4.0% skip:36.2% L0:45.4% L1:46.2% BI: 8.4%
x264 [info]: 8x8 transform intra:73.6% inter:65.4%
x264 [info]: direct mvs spatial:94.9% temporal:5.1%
x264 [info]: coded y,uvDC,uvAC intra: 78.8% 78.9% 49.5% inter: 19.6% 21.2% 8.2%
x264 [info]: i16 v,h,dc,p: 19% 16% 4% 61%
x264 [info]: i8 v,h,dc,ddl,ddr,vr,hd,vl,hu: 9% 6% 6% 11% 15% 14% 15% 11% 13%
x264 [info]: i4 v,h,dc,ddl,ddr,vr,hd,vl,hu: 21% 8% 7% 8% 13% 11% 12% 9% 11%
x264 [info]: i8c dc,h,v,p: 31% 29% 19% 21%
x264 [info]: Weighted P-Frames: Y:16.2% UV:12.6%
x264 [info]: ref P L0: 48.7% 8.9% 17.7% 7.0% 5.6% 3.9% 3.6% 2.0% 2.1% 0.5% 0.1%
x264 [info]: ref B L0: 72.4% 12.3% 6.5% 3.2% 2.3% 1.9% 1.1% 0.4%
x264 [info]: ref B L1: 94.1% 5.9%
x264 [info]: kb/s:2500.39

encoded 156975 frames, 9.72 fps, 2500.39 kb/s
GeneralComplete name : K:\Torrents\Geostorm.2017.BDRip.x264.1280x.rip by Frost O.S.mp4Format : MPEG-4Format profile : 3GPP Release 6 GeneralCodec ID : 3gg6 (isom/3gg6/mp42)File size : 2.20 GiBDuration : 1 h 49 minOverall bit rate mode : VariableOverall bit rate : 2 892 kb/sEncoded date : UTC 2018-08-01 13:03:42Tagged date : UTC 2018-08-01 13:03:42

VideoID : 1Format : AVCFormat/Info : Advanced Video CodecFormat profile : High@L4.1Format settings : CABAC / 9 Ref FramesFormat settings, CABAC : YesFormat settings, RefFrames : 9 framesCodec ID : avc1Codec ID/Info : Advanced Video CodingDuration : 1 h 49 minBit rate : 2 500 kb/sMaximum bit rate : 9 248 kb/sWidth : 1 280 pixelsHeight : 532 pixelsDisplay aspect ratio : 2.40:1Frame rate mode : ConstantFrame rate : 23.976 (24000/1001) FPSColor space : YUVChroma subsampling : 4:2:0Bit depth : 8 bitsScan type : ProgressiveBits/(Pixel*Frame) : 0.153Stream size : 1.91 GiB (86%)Writing library : x264 core 152 r2851 ba24899Encoding settings : cabac=1 / ref=9 / deblock=1:-2:-1 / analyse=0x3:0x113 / me=umh / subme=11 / psy=1 / psy_rd=1.00:0.00 / mixed_ref=1 / me_range=32 / chroma_me=1 / trellis=2 / 8x8dct=1 / cqm=0 / deadzone=21,11 / fast_pskip=0 / chroma_qp_offset=-2 / threads=6 / lookahead_threads=1 / sliced_threads=0 / nr=0 / decimate=0 / interlaced=0 / bluray_compat=0 / constrained_intra=0 / bframes=10 / b_pyramid=2 / b_adapt=2 / b_bias=0 / direct=3 / weightb=1 / open_gop=0 / weightp=2 / keyint=250 / keyint_min=23 / scenecut=40 / intra_refresh=0 / rc=2pass / mbtree=0 / bitrate=2500 / ratetol=1.0 / qcomp=0.70 / qpmin=0 / qpmax=69 / qpstep=4 / cplxblur=20.0 / qblur=0.5 / ip_ratio=1.40 / pb_ratio=1.30 / aq=1:0.80Encoded date : UTC 2018-07-31 15:22:50Tagged date : UTC 2018-08-01 13:04:15Color range : LimitedColor primaries : BT.709Transfer characteristics : BT.709Matrix coefficients : BT.709

Audio #1ID : 2Format : AACFormat/Info : Advanced Audio CodecFormat profile : LCCodec ID : mp4a-40-2Duration : 1 h 49 minBit rate mode : VariableBit rate : 128 kb/sMaximum bit rate : 134 kb/sChannel(s) : 2 channelsChannel positions : Front: L RSampling rate : 48.0 kHzFrame rate : 46.875 FPS (1024 SPF)Compression mode : LossyStream size : 99.9 MiB (4%)Title : Russian / Dub, Blu-Ray EUREncoded date : UTC 2018-08-01 12:54:48Tagged date : UTC 2018-08-01 13:04:15

Audio #2ID : 3Format : AACFormat/Info : Advanced Audio CodecFormat profile : LCCodec ID : mp4a-40-2Duration : 1 h 49 minBit rate mode : VariableBit rate : 128 kb/sMaximum bit rate : 133 kb/sChannel(s) : 2 channelsChannel positions : Front: L RSampling rate : 48.0 kHzFrame rate : 46.875 FPS (1024 SPF)Compression mode : LossyStream size : 99.9 MiB (4%)Title : Ukrainian / Dub, PostmodernEncoded date : UTC 2018-08-01 12:58:17Tagged date : UTC 2018-08-01 13:04:15

Audio #3ID : 4Format : AACFormat/Info : Advanced Audio CodecFormat profile : LCCodec ID : mp4a-40-2Duration : 1 h 49 minBit rate mode : VariableBit rate : 128 kb/sMaximum bit rate : 134 kb/sChannel(s) : 2 channelsChannel positions : Front: L RSampling rate : 48.0 kHzFrame rate : 46.875 FPS (1024 SPF)Compression mode : LossyStream size : 99.9 MiB (4%)Title : English / OriginalEncoded date : UTC 2018-08-01 12:50:25Tagged date : UTC 2018-08-01 13:04:15

Text #1ID : 5Format : Timed TextCodec ID : tx3gDuration : 1 h 40 minBit rate mode : VariableBit rate : 3 b/sStream size : 2.11 KiB (0%)Title : Russian / ForcedForced : NoEncoded date : UTC 2018-08-01 13:04:14Tagged date : UTC 2018-08-01 13:04:15

Text #2ID : 6Format : Timed TextCodec ID : tx3gDuration : 1 h 43 minBit rate mode : VariableBit rate : 119 b/sStream size : 90.0 KiB (0%)Title : Russian / FullForced : NoEncoded date : UTC 2018-08-01 13:04:15Tagged date : UTC 2018-08-01 13:04:15

Text #3ID : 7Format : Timed TextCodec ID : tx3gDuration : 1 h 43 minBit rate mode : VariableBit rate : 5 b/sStream size : 3.94 KiB (0%)Title : Ukrainian / ForcedForced : NoEncoded date : UTC 2018-08-01 13:04:15Tagged date : UTC 2018-08-01 13:04:15

Text #4ID : 8Format : Timed TextCodec ID : tx3gDuration : 1 h 41 minBit rate mode : VariableBit rate : 83 b/sStream size : 62.2 KiB (0%)Title : English / FullForced : NoEncoded date : UTC 2018-08-01 13:04:15Tagged date : UTC 2018-08-01 13:04:15

Text #5ID : 9Format : Timed TextCodec ID : tx3gDuration : 1 h 41 minBit rate mode : VariableBit rate : 79 b/sStream size : 59.2 KiB (0%)Title : English / SDHForced : NoEncoded date : UTC 2018-08-01 13:04:15Tagged date : UTC 2018-08-01 13:04:15


Трекер:  [ 01-Авг-2018 16:36 ]

  

Скачать .torrent

Размер .torrent файла 11 KB


Размер: 2.2 GB
Хэш (hash) релиза: b3dcd18eca443bd3b12613b5949acf5537c3b645

Еще никто не оставлял запись к записи скачать торрент [VIDEO] Геошторм Geostorm . Будь первым!

!Обратная связь