Скачать через торрент музыку O.V.S. - В Небесах - In The Sky - 2018, MP3, 320 kbps бесплатно без регистрации torrent

Статистика раздачи
Размер:  36 MB   |    Зарегистрирован:  2 месяца 20 дней   |    .torrent скачан:  58 раз   |   
Раздают:  1  
   
загрузка...
 
Автор Сообщение

Galfimbul

avatar Galfimbul


O.V.S. - В Небесах - In The Sky

Жанр: Electronic, Ambient
Страна исполнителя (группы): Россия
Год издания: 2018
Аудиокодек: MP3
Тип рипа: tracks
Битрейт аудио: 320 kbps
Продолжительность: 15:40
Наличие сканов в содержимом раздачи: нет
Треклист:
1. В Небесах / In the Sky
2. Суета / Vanity
3. Восхождение / Ascent

Hi-Res stereo: ...5594187
lossless: ...5592221
foobar2000 1.4 / Замер динамического диапазона (DR) 1.1.1
Дата отчёта: 2018-08-01 17:51:10

--------------------------------------------------------------------------------
Анализ: O.V.S. / In The Sky
--------------------------------------------------------------------------------

DR Пики RMS Продолжительность трека
--------------------------------------------------------------------------------
DR8 -3.30 дБ -13.65 дБ 3:31 01-In The Sky
DR10 0.00 дБ -11.96 дБ 4:16 02-Vanity
DR11 -0.89 дБ -14.29 дБ 7:54 03-Ascent
--------------------------------------------------------------------------------

Количество треков: 3
Реальные значения DR: DR10

Частота: 44100 Гц
Каналов: 2
Битрейт: 320 кбит/с
Кодек: MP3
================================================================================


Трекер:  [ 01-Авг-2018 18:01 ]

  

Скачать .torrent

Размер .torrent файла 12 KB


Размер: 36 MB
Хэш (hash) релиза: 0a5d720833d14d49531b681a916a8b574c4be790

Еще никто не оставлял запись к записи скачать торрент O.V.S. - В Небесах - In The Sky - 2018, MP3, 320 kbps . Будь первым!

!Обратная связь