Скачать через торрент Мститель Avenger бесплатно Аниме Все серии на русском torrent

Статистика раздачи
Размер:  252 MB   |    Зарегистрирован:  4 месяца 11 дней   |    .torrent скачан:  69 раз   |   
Раздают:  1  
   
загрузка...
 
Автор Сообщение

Galfimbul

avatar Galfimbul


Мститель / Avenger

Страна: Япония
Год выпуска: 2003
Жанр: приключения, фантастика, боевик, сёнэн
Тип: TV
Продолжительность: 13 эп., 24 мин.
Режиссер: Масимо Койти
Студия: Bee Train
Перевод на русский: Endmon. Редакция и оформление: Дмитрию Ющенко
Озвучка трёхголосая: ShinkaDan (Sempl): Azazel (муж.), Mai (жен.) и Kobayashi (жен.) (трёхголосая)
Звукорежиссёр: Виктор Нуштаев

Описание: Итак, будущее (дату не спрашивайте - не знаю и не очень ей интересуюсь), человечество умудрилось-таки угробить Землю-матушку и, поскольку до Альфы Центавра не долетело, расселилось по окрестным планетам, в частности, колонии появились на Марсе. В этом багровом мире бродит от города к городу некая Лэйла Эшли, молчаливая девица с хорошим ударом обеими руками и ногами, замечательной пластикой, странной куклой Нэй и девизом: "Надеюсь, ты сможешь меня убить". Цель ее прогулки длиной в тринадцать серий проста: отомстить Волку. Нет, не из сказки про Красную Шапочку. Волк - негласный правитель Марса, большой поклонник непопулярных методов ведения дел и таскания на себе всяких тяжестей, вроде доспехов и грехов. Однажды ему придётся ответить за содеянное, а мы проконтролируем процесс оплаты по счету.

Качество: DVDRip
Тип релиза: Полухардсаб
Формат видео: MKV
Релиз/Автор рипа: MMMXXX
Видео: h264, 688x448 (AR 16:9), 29.97fps, 1100kbps, 8 bits
Аудио: MP3 48000Hz 16bit 2ch 192 Kbps Язык Русский (в составе контейнера) ; Озвучка: двухголосая: ShinkaDan (Sempl): Azazel (муж.), Mai (жен.) и Kobayashi (жен.) (трёхголосая)
Аудио 2: MP3 48000Hz 16bit 2ch 192 Kbps Язык Японский
Субтитры: Полные - SRT Язык субтитров русский ; Перевод: Endmon
Субтитры 2: Полные - SRT Язык субтитров английский
Хардсаб: данные кодеров, название группы
ОбщееУникальный идентификатор : 240009167918364587028912710685956049094 (0xB4901597725F4C16925FCC56DEED08C6)Полное имя : O:\Downloads\[ShinkaDan] Avenger [Azazel & Mai & Kobayashi]\[ShinkaDan] Avenger - 01 [DVDrip 688x448 H264 MP3] [Azazel & Mai & Kobayashi].mkvФормат : MatroskaВерсия формата : Version 4 / Version 2Размер файла : 252 МбайтПродолжительность : 23 м.Общий поток : 1488 Кбит/секДата кодирования : UTC 2018-08-01 18:54:13Программа кодирования : mkvmerge v8.2.0 ('World of Adventure') 64bitБиблиотека кодирования : libebml v1.3.1 + libmatroska v1.4.2DURATION : 00:23:38.592000000NUMBER_OF_FRAMES : 59108NUMBER_OF_BYTES : 34046208_STATISTICS_WRITING_APP : mkvmerge v8.2.0 ('World of Adventure') 64bit_STATISTICS_WRITING_DATE_UTC : 2018-08-01 18:54:13_STATISTICS_TAGS : BPS DURATION NUMBER_OF_FRAMES NUMBER_OF_BYTES

ВидеоИдентификатор : 1Формат : AVCФормат/Информация : Advanced Video CodecПрофиль формата : High@L5.1Параметр CABAC формата : ДаПараметр ReFrames формата : 2 кадраИдентификатор кодека : V_MPEG4/ISO/AVCПродолжительность : 23 м.Битрейт : 1100 Кбит/секШирина : 688 пикселейВысота : 448 пикселейСоотношение сторон : 16:9Соотношение сторон в оригинале : 3:2Режим частоты кадров : ПостоянныйЧастота кадров : 29,970 кадров/секЦветовое пространство : YUVСубдискретизация насыщенности : 4:2:0Битовая глубина : 8 битТип развёртки : ПрогрессивнаяБит/(Пиксели*Кадры) : 0.119Размер потока : 182 Мбайт (72%)Заголовок : VideoБиблиотека кодирования : x264 core 48 svn-537Настройки программы : cabac=1 / ref=1 / deblock=1:0:0 / analyse=0x3:0x113 / me=hex / subme=5 / brdo=0 / mixed_ref=0 / me_range=16 / chroma_me=1 / trellis=1 / 8x8dct=1 / cqm=0 / chroma_qp_offset=0 / slices=1 / nr=0 / decimate=1 / bframes=2 / b_pyramid=0 / b_adapt=1 / b_bias=0 / direct=2 / wpredb=1 / bime=0 / keyint=250 / keyint_min=25 / scenecut=40 / rc=2pass / bitrate=1100 / ratetol=1.0 / rceq='blurCplx^(1-qComp)' / qcomp=0.60 / qpmin=10 / qpmax=51 / qpstep=4 / cplxblur=20.0 / qblur=0.5 / ip_ratio=1.40 / pb_ratio=1.30Default : ДаForced : Нет

Аудио #1Идентификатор : 2Формат : MPEG AudioВерсия формата : Version 1Профиль формата : Layer 3Режим : Joint stereoРасширение режима : MS StereoИдентификатор кодека : A_MPEG/L3Идентификатор кодека/Подсказка : MP3Продолжительность : 23 м.Вид битрейта : ПостоянныйБитрейт : 192 Кбит/секКаналы : 2 каналаЧастота : 48,0 КГцМетод сжатия : С потерямиЗадержка видео : -67 мс.Размер потока : 32,5 Мбайт (13%)Заголовок : Azazel, Mai and KobayashiaЯзык : RussianDefault : ДаForced : Да

Аудио #2Идентификатор : 3Формат : MPEG AudioВерсия формата : Version 1Профиль формата : Layer 3Режим : Joint stereoИдентификатор кодека : A_MPEG/L3Идентификатор кодека/Подсказка : MP3Продолжительность : 23 м.Вид битрейта : ПостоянныйБитрейт : 192 Кбит/секКаналы : 2 каналаЧастота : 48,0 КГцМетод сжатия : С потерямиЗадержка видео : -67 мс.Размер потока : 32,5 Мбайт (13%)Заголовок : OriginalБиблиотека кодирования : LAME3.99Настройки программы : -m j -V 4 -q 3 -lowpass 18.6 -b 192Язык : JapaneseDefault : НетForced : Нет

Текст #1Идентификатор : 4Формат : UTF-8Идентификатор кодека : S_TEXT/UTF8Идентификатор кодека/Информация : UTF-8 Plain TextЗаголовок : EndmonЯзык : RussianDefault : НетForced : Нет

Текст #2Идентификатор : 5Формат : UTF-8Идентификатор кодека : S_TEXT/UTF8Идентификатор кодека/Информация : UTF-8 Plain TextЗаголовок : English SubsЯзык : EnglishDefault : НетForced : Нет
01. Купол
02. Кукла
03. Ребенок
04. Взрослый
05. Силуэт
06. Отражение
07. Барбарой
08. Пилигрим
09. Богиня
10. Замороженные
11. Лунный
12. Матч
13. Объективный
...1017331 - Альтернативная озвучка


Трекер:  [ 02-Авг-2018 00:30 ]

  

Скачать .torrent

Размер .torrent файла 20 KB


Размер: 252 MB
Хэш (hash) релиза: e005595e6dc6952c32995e63e7d8fe81d0e77f97
Подписка на обновления:

Еще никто не оставлял запись к записи скачать торрент Мститель Avenger . Будь первым!

!Обратная связь