Скачать через торрент Псевдокот Counterfeit Cat Фильм бесплатно в хорошем качестве torrent

Скачивайте на UnionPeer.org фильмы через торрент без регистрации. Новинки кино в хорошем качестве через торрент. На UnionPeer.org можно скачать через торрент фильмы 2014 и 2015 годов. Самые новые фильмы.

Скачать торрент Псевдокот Counterfeit Cat бесплатно через .torrent фильм мультфильм сериал

Статистика раздачи
Размер:  20.28 GB   |    Зарегистрирован:  2 месяца 15 дней   |    .torrent скачан:  49 раз   |   
Раздают:  1  
   
загрузка...
 
Автор Сообщение

Galfimbul

avatar Galfimbul


Псевдокот / Counterfeit Cat

Страна: Канада
Жанр: мультсериал, семейный
Продолжительность серии: 00:22:00
Год выпуска: 2016
Перевод: Профессиональный (дублированный) [Кириллица]
Русские субтитры: нет

Режиссёр: Бен Марсо / Ben Marsaud
Роли озвучивали: Марк Уоттон, Алекс Келли, Кайван Новак, Сандра Дикинсон, Кэтрин Райан

Описание: Однажды в прачечной Бетти приземлился космический корабль. Из него появился Гарк — синий пришелец в фиолетовом костюме кота. Он прибыл с особой миссией: научиться храбрости у любимчика Бетти, которого по ошибке принял за тигра, чтобы в будущем спасти Вселенную. Вот только Макс совсем не такой, каким представлял его себе наивный инопланетянин. Он жирный, избалованный кот и ничего общего с мужеством не имеет. Однако дружба с авантюристом Гарком не оставит лентяю выбора — он просто вынужден будет стать отважным героем.

Доп. информация: Сведение дорожек - WORTEXSON

Семпл

Качество: WEB-DL 1080p
Формат: MKV
Видео: MPEG4 Video (H264) 1436x1080 (16:9) 29.970fps ~5500 kbps
Аудио: [Русский] Dolby AC3 48000Hz stereo 192kbps
Аудио 2: [Английский] AAC 48000Hz stereo 155kbps
Субтитры: отсутствуют
GeneralUnique ID : 8621514448538859629954094002222736437 (0x67C717B1375270A7DC033DDCA652435)Complete name : D:\Disney_XD\Counterfeit.Cat-WEB-DL1080p\Counterfeit.Cat.S01E01-1080p.WEB-DL.Rus.Eng.H.264.mkvFormat : MatroskaFormat version : Version 4 / Version 2File size : 872 MiBDuration : 21 min 58 sOverall bit rate : 5 546 kb/sMovie name : Counterfeit Cat S1 EP01Encoded date : UTC 2018-08-01 16:53:32Writing application : mkvmerge v25.0.0 ('Prog Noir') 64-bitWriting library : libebml v1.3.6 + libmatroska v1.4.9Cover : YesAttachments : cover.jpg

VideoID : 1Format : AVCFormat/Info : Advanced Video CodecFormat profile : High@L4Format settings : CABAC / 5 Ref FramesFormat settings, CABAC : YesFormat settings, ReFrames : 5 framesCodec ID : V_MPEG4/ISO/AVCDuration : 21 min 58 sBit rate : 5 195 kb/sWidth : 1 436 pixelsHeight : 1 080 pixelsDisplay aspect ratio : 16:9Frame rate mode : ConstantFrame rate : 29.970 (29970/1000) FPSColor space : YUVChroma subsampling : 4:2:0Bit depth : 8 bitsScan type : ProgressiveBits/(Pixel*Frame) : 0.112Stream size : 816 MiB (94%)Title : by WORTEXSONLanguage : EnglishDefault : YesForced : NoColor range : LimitedColor primaries : BT.709Transfer characteristics : BT.709Matrix coefficients : BT.709

Audio #1ID : 2Format : AC-3Format/Info : Audio Coding 3Codec ID : A_AC3Duration : 21 min 58 sBit rate mode : ConstantBit rate : 192 kb/sChannel(s) : 2 channelsChannel positions : Front: L RSampling rate : 48.0 kHzFrame rate : 31.250 FPS (1536 SPF)Bit depth : 16 bitsCompression mode : LossyStream size : 30.2 MiB (3%)Title : rus : ac-3 : 2.0 : 192 kb/sLanguage : RussianService kind : Complete MainDefault : YesForced : Yes

Audio #2ID : 3Format : AACFormat/Info : Advanced Audio CodecFormat profile : LCCodec ID : A_AAC-2Duration : 21 min 58 sBit rate : 155 kb/sChannel(s) : 2 channelsChannel positions : Front: L RSampling rate : 48.0 kHzFrame rate : 46.875 FPS (1024 SPF)Compression mode : LossyStream size : 24.3 MiB (3%)Title : eng : acc : 2.0 : 155 kb/sLanguage : EnglishDefault : NoForced : No
Предыдущие и альтернативные раздачи

Трекер:  [ 02-Авг-2018 01:54 ]

  

Скачать .torrent

Размер .torrent файла 53 KB


Размер: 20.28 GB
Хэш (hash) релиза: fd4350afbd164ccaefe9a5cbea4388342e24098f
Подписка на обновления:

Еще никто не оставлял запись к записи скачать торрент Псевдокот Counterfeit Cat . Будь первым!

!Обратная связь