Скачать через торрент Охота за сокровищами нацистов Фильм бесплатно в хорошем качестве torrent

Скачивайте на UnionPeer.org фильмы через торрент без регистрации. Новинки кино в хорошем качестве через торрент. На UnionPeer.org можно скачать через торрент фильмы 2014 и 2015 годов. Самые новые фильмы.

Скачать торрент Охота за сокровищами нацистов бесплатно через .torrent фильм мультфильм сериал

Статистика раздачи
Размер:  7.95 GB   |    Зарегистрирован:  3 месяца 13 дней   |    .torrent скачан:  86 раз   |   
Раздают:  1  
   
загрузка...
 
Автор Сообщение

Galfimbul

avatar Galfimbul


Охота за сокровищами нацистов (3 серии из 8) / Hunting Nazi Treasure

Год выпуска: 2017
Страна: Канада
Студия: Canada Media Fund
Жанр: Документальный, война, искусство, история, исследование
Продолжительность: 3x ~ 00:46:00
Перевод: Студийный (одноголосый закадровый)
Доп. инфо о переводе: sg media / Владимир Рыбальченко
Русские субтитры: нет

Режиссер: Мик Гроган / Mick Grogan

Описание:

Нацисты украли миллионы культурных и материальных ценностей. Те, что до сих пор не найдены, оцениваются в 175 миллиардов долларов, и их поиски продолжаются до сих пор.
01. Искусство похищенное Герингом - Goering's Looted Art

03. Коллекция Гитлера - Hitler’s Obsession
[b]Сэмпл: http://multi-up.com/1205232

Тип релиза: HDTV 720p
Контейнер: TS

Видео: AVC, 1280x720 (16:9), 50 fps, 7 977 kb/s, 0.173 bit/pixel
Аудио: Russian, MP2, 48 kHz, 2 ch; 128 kbps
Аудио 2: English, MP2, 48 kHz, 2 ch; 128 kbps
GeneralID : 1 (0x1)Complete name : C:\Охота за сокровищами нацистов_HDTV 720p_RUS_ENG-dds\01. Искусство похищенное Герингом - Goering's Looted Art.tsFormat : MPEG-TSFile size : 2.81 GiBDuration : 46 min 24 sOverall bit rate mode : VariableOverall bit rate : 8 664 kb/s

VideoID : 305 (0x131)Menu ID : 17105 (0x42D1)Format : AVCFormat/Info : Advanced Video CodecFormat profile : High@L4Format settings : CABAC / 5 Ref FramesFormat settings, CABAC : YesFormat settings, RefFrames : 5 framesCodec ID : 27Duration : 46 min 24 sBit rate : 7 977 kb/sWidth : 1 280 pixelsHeight : 720 pixelsDisplay aspect ratio : 16:9Frame rate : 50.000 FPSStandard : ComponentColor space : YUVChroma subsampling : 4:2:0Bit depth : 8 bitsScan type : ProgressiveBits/(Pixel*Frame) : 0.173Stream size : 2.59 GiB (92%)Color range : LimitedColor primaries : BT.709Transfer characteristics : BT.709Matrix coefficients : BT.709

Audio #1ID : 405 (0x195)Menu ID : 17105 (0x42D1)Format : MPEG AudioFormat version : Version 1Format profile : Layer 2Codec ID : 3Duration : 46 min 24 sBit rate mode : ConstantBit rate : 128 kb/sChannel(s) : 2 channelsSampling rate : 48.0 kHzFrame rate : 41.667 FPS (1152 SPF)Compression mode : LossyDelay relative to video : -140 msStream size : 42.5 MiB (1%)Language : Russian

Audio #2ID : 425 (0x1A9)Menu ID : 17105 (0x42D1)Format : MPEG AudioFormat version : Version 1Format profile : Layer 2Codec ID : 3Duration : 46 min 24 sBit rate mode : ConstantBit rate : 128 kb/sChannel(s) : 2 channelsSampling rate : 48.0 kHzFrame rate : 41.667 FPS (1152 SPF)Compression mode : LossyDelay relative to video : -140 msStream size : 42.5 MiB (1%)Language : English


Трекер:  [ 02-Авг-2018 16:06 ]

  

Скачать .torrent

Размер .torrent файла 40 KB


Размер: 7.95 GB
Хэш (hash) релиза: 0d081992a90f623eb4972e1410474466d50986e7
Подписка на обновления:

Еще никто не оставлял запись к записи скачать торрент Охота за сокровищами нацистов . Будь первым!

!Обратная связь