Скачать через торрент Решение о ликвидации Фильм бесплатно в хорошем качестве torrent

Скачивайте на UnionPeer.org фильмы через торрент без регистрации. Новинки кино в хорошем качестве через торрент. На UnionPeer.org можно скачать через торрент фильмы 2014 и 2015 годов. Самые новые фильмы.

Скачать торрент Решение о ликвидации бесплатно через .torrent фильм мультфильм сериал

Статистика раздачи
Размер:  1.45 GB   |    Зарегистрирован:  2 месяца 28 дней   |    .torrent скачан:  148 раз   |   
Раздают:  1  
   
загрузка...
 
Автор Сообщение

Galfimbul

avatar Galfimbul


Решение о ликвидации



[b]Год выхода:
2018
Жанр: Военный, боевик, драма
Страна: Россия
Перевод: Не требуется
Продолжительность: 01:36:11
Режиссер: Александр Аравин
В ролях: Игорь Петренко, Алексей Вертков, Аюб Цингиев, Алексей Шевченков, Дмитрий Парастаев, Иван Шахназаров, Дагун Омаев, Сослан Фидаров, Кирилл Краснов, Шамиль Алханов и др.

О фильме: Особое задание спецгруппы ФСБ — ликвидация одержимого террориста Шамиля Базгаева. Охота продолжается уже долго, но жестокий лидер боевиков раз за разом ускользает. Однако, когда Базгаеву удается заполучить мощное оружие для осуществления своего самого страшного теракта, у оперативников больше нет права на ошибку. Для этих спецов преодоление себя, смертельный риск и подвиг — не что-то сверхъестественное, а каждодневный тяжелый труд. Но, кажется, даже для них эта операция — за пределами возможностей…



Файл
Формат: AVI
Качество: BDRip
Видео: Xvid, 720x304, ~1706 kbps, 23,976 fps
Звук: русский, AC3, 5.1 ch, 48 kHz, 448 kbps | Лицензия
Субтитры: русские (вшитые) на чеченскую речь
General
Полное имя : F:TorrentReshenieOlikvidaciiBDRip.avi
Формат : AVI
Формат/Информация : Audio Video Interleave
Размер файла : 1.45 GiB
Продолжительность : 1 h 36 min
Общий поток : 2 163 kb/s
Библиотека кодирования : VirtualDub build 35491/release

Video
Идентификатор : 0
Формат : MPEG-4 Visual
Профиль формата : Advanced Simple@L5
Настройки формата : BVOP2 / Custom Matrix
Параметр BVOP формата : 2
Параметр QPel формата : No
Параметр GMC формата : No warppoints
Параметр матрицы формата : Custom
Идентификатор кодека : XVID
Идентификатор кодека/Подсказка : XviD
Продолжительность : 1 h 36 min
Битрейт : 1 706 kb/s
Ширина : 720 pixels
Высота : 304 pixels
Соотношение сторон : 2.35:1
Частота кадров : 23.976 (24000/1001) FPS
Цветовое пространство : YUV
Субдискретизация насыщенности : 4:2:0
Битовая глубина : 8 bits
Тип развёртки : Progressive
Метод сжатия : Lossy
Бит/(Пиксели*Кадры) : 0.325
Размер потока : 1.15 GiB (79%)
Библиотека кодирования : XviD 67

Audio
Идентификатор : 1
Формат : AC-3
Формат/Информация : Audio Coding 3
Идентификатор кодека : 2000
Продолжительность : 1 h 36 min
Вид битрейта : Constant
Битрейт : 448 kb/s
Каналы : 6 channels
Расположение каналов : Front: L C R, Side: L R, LFE
Частота : 48.0 kHz
Частота кадров : 31.250 FPS (1536 SPF)
Битовая глубина : 16 bits
Метод сжатия : Lossy
Размер потока : 308 MiB (21%)
Выравнивание : Aligned on interleaves
Продолжительность промежутка : 42 ms (1.00 video frame)
Время предзагрузки промежутка : 512 ms
Источник http://BlaTor.org

Трекер:  [ 25-Авг-2018 14:00 ]

  

Скачать .torrent

Размер .torrent файла 15 KB


Размер: 1.45 GB
Хэш (hash) релиза: e86257c4957f450d9edf9ae2f6d8c103160cf55a
Подписка на обновления:

Торренты, похожие на Решение о ликвидации скачать торрент

Форум Название Автор Размер S L Добавлен
Российские фильмы 2016-2018 (Новинки русского кино) ·%· Решение о ликвидации (2018) DVD5 от New-Team | Лицензия Galfimbul 43048755204.01 GB 0 0 1536489742

13:42

9-Сен-18

Российские фильмы 2016-2018 (Новинки русского кино) ·%· Решение о ликвидации (2018) BDRip-AVC от ExKinoRay | Лицензия Galfimbul 782213003746 MB 0 0 1535313027

22:50

26-Авг-18

Российские фильмы 2016-2018 (Новинки русского кино) ·%· Решение о ликвидации (2018) BDRemux 1080p от OlLanDGroup | Лицензия Galfimbul 2079815007819.37 GB 0 0 1535281216

14:00

26-Авг-18

Российские фильмы 2016-2018 (Новинки русского кино) ·%· Решение о ликвидации (2018) HDRip от MegaPeer | Лицензия Galfimbul 780967390745 MB 0 0 1535261421

08:30

26-Авг-18

Российские фильмы 2016-2018 (Новинки русского кино) ·%· Решение о ликвидации (2018) BDRip от ExKinoRay | Лицензия Galfimbul 15685973121.46 GB 0 0 1535227950

23:12

25-Авг-18

Российские фильмы 2016-2018 (Новинки русского кино) ·%· Решение о ликвидации (2018) BDRip от MegaPeer | Лицензия Galfimbul 15688273921.46 GB 0 0 1535216025

19:53

25-Авг-18

Российские фильмы 2016-2018 (Новинки русского кино) ·%· Решение о ликвидации (2018) BDRip-AVC | Лицензия Galfimbul 21578641302.01 GB 0 0 1535194859

14:00

25-Авг-18

Российские фильмы 2016-2018 (Новинки русского кино) ·%· Решение о ликвидации (2018) BDRip 720p | Лицензия Galfimbul 40630655213.78 GB 0 0 1535194845

14:00

25-Авг-18

Российские фильмы 2016-2018 (Новинки русского кино) ·%· Решение о ликвидации (2018) BDRip 1080p | Лицензия Galfimbul 83182197387.75 GB 0 0 1535194811

14:00

25-Авг-18

Российские фильмы 2016-2018 (Новинки русского кино) ·%· Решение о ликвидации (2018) WEB-DLRip-AVC от GeneralFilm Galfimbul 15714862171.46 GB 0 0 1533334217

01:10

4-Авг-18

Российские фильмы 2016-2018 (Новинки русского кино) ·%· Решение о ликвидации (2018) WEB-DLRip от GeneralFilm Galfimbul 781543424745 MB 0 0 1533228655

19:50

2-Авг-18

Российские фильмы 2016-2018 (Новинки русского кино) ·%· Решение о ликвидации (2018) WEB-DLRip от Generalfilm | КПК Galfimbul 368078337351 MB 0 0 1533219066

17:11

2-Авг-18

Российские фильмы 2016-2018 (Новинки русского кино) ·%· Решение о ликвидации (2018) WEB-DLRip Galfimbul 15635458001.46 GB 0 0 1533207844

14:04

2-Авг-18

Зарубежные фильмы до 2016 ·· Приказано уничтожить / Решение о ликвидации / Executive Decision (Стюарт Бейрд / Stuart Baird) [1996, США, боевик, триллер, приключения, HDTVRip] DUB + Sub rus, eng + original eng Galfimbul 23485032592.19 GB 0 0 1365330920

13:35

7-Апр-13

Зарубежные фильмы до 2016 ·· Приказано уничтожить / Решение о ликвидации / Executive Decision (Стюарт Бейрд / Stuart Baird) [1996 г., боевик, HDTVRip] MVO "Россия" Galfimbul 15693783041.46 GB 0 0 1365265930

19:32

6-Апр-13

Зарубежные фильмы до 2016 ·· Приказано уничтожить / Решение о ликвидации / Executive Decision (Стюарт Бейрд / Stuart Baird) [1996 г., боевик, триллер, приключения, BDRip-AVC] Dub + MVO ("Россия") + AVO (Гаврилов) + Eng + Sub (Rus, Eng) L 21360713681.99 GB 0 0 1326294149

18:02

11-Янв-12

Зарубежные фильмы до 2016 ·· Приказано уничтожить / Решение о ликвидации / Executive Decision (Стюарт Бейрд / Stuart Baird) [1996 г., боевик, HDTVRip] MVO ("Россия") Galfimbul 15605166081.45 GB 0 0 1314089531

11:52

23-Авг-11

Зарубежные фильмы до 2016 ·· Приказано уничтожить / Решение о ликвидации / Executive Decision (Стюарт Бейрд / Stuart Baird) [1996 г., боевик, HDTVRip] MVO ("Россия") Galfimbul 844873728806 MB 0 0 1314089495

11:51

23-Авг-11

Зарубежные фильмы до 2016 ·· Приказано уничтожить (Решение о ликвидации) / Executive decision (Стюарт Бэйрд / Stuart Baird) [1996 г., Боевик, триллер, DVD9] Dub + AVO (Гаврилов) + Rus sub Galfimbul 69560995846.48 GB 0 0 1303921607

19:26

27-Апр-11

Еще никто не оставлял запись к записи скачать торрент Решение о ликвидации . Будь первым!

!Обратная связь