Скачать через торрент Невидимый гость Contratiempo Фильм бесплатно в хорошем качестве torrent

Скачивайте на UnionPeer.org фильмы через торрент без регистрации. Новинки кино в хорошем качестве через торрент. На UnionPeer.org можно скачать через торрент фильмы 2014 и 2015 годов. Самые новые фильмы.

Скачать торрент Невидимый гость Contratiempo бесплатно через .torrent фильм мультфильм сериал

Статистика раздачи
Размер:  1.46 GB   |    Зарегистрирован:  5 лет 5 месяцев   |    .torrent скачан:  120 раз   |   
Раздают:  1  
 

Скачать Невидимый гость / Contratiempo (2016) BDRip-AVC от OlLanDGroup | Лицензия через torrent

 
 
Автор Сообщение

Galfimbul

avatar Galfimbul


Невидимый гость / Contratiempo
«У каждой истории две стороны. Правда - только одна»


Год выпуска: 2016
Страна: Испания
Производство: Atresmedia, Atresmedia Cine, Colos? Producciones, Movistar+
Жанр: Триллер, криминал, детектив

Режиссёр: Ориол Паоло
В ролях: Марио Касас, Хосе Коронадо, Барбара Ленни, Ана Вахенер, Франсеск Орелья, Кристиан Валенсиа, Пако Тоус, Бетси Тунес, Давид Сельвас

Перевод: Дублированный | [Лицензия]
Субтитры: Русские (полные)
Реклама: Отсутствует

Описание: Молодой бизнесмен Эдриан Дориа просыпается в закрытом изнутри номере отеля рядом с бездыханным телом своей любовницы. Его обвиняют в убийстве, но он, не считая себя виновным, решает воспользоваться услугами Вирджинии Гудман, лучшего в стране специалиста по выходу из самых сложных ситуаций. В течение одной ночи консультант и её клиент будут работать, чтобы найти разумное опровержение обвинению, и, тем самым, высвободить его из тюрьмы.



Качество: BDRip-AVC | BluRay Disc | Невидимый гость / Contratiempo (2016) Blu-ray Disc [RUS] -BLUEBIRD
Продолжительность: 01:46:08

Формат: MKV
Видео кодек: MPEG-4 AVC
Аудио кодек: AC3
Видео: 976x408 (2.40:1), 23,976 fps, x264 ~1 519 kbps avg, 0.159 bit/pixel
Аудио #1: 48 kHz, AC3 Dolby Digital, 3/2 (L,C,R,l,r) + LFE ch, ~448.00 kbps avg | RUS (Лицензия)

Дата премьеры (мир): 23 сентября 2016
Дата премьеры (РФ): 31 мая 2018, «ПРОвзгляд»
Цифровой релиз: 25 июня 2018, «НД Плэй»
Общее
Уникальный идентификатор : 41529385957294569517690217713540742219 (0x1F3E44CFFE220712F01A7E11CDDB3C4B)
Полное имя : F:OlLanDGroupContratiempo.2016.BDRip(AVC).OlLanDGroup.mkv
Формат : Matroska
Версия формата : Version 4 / Version 2
Размер файла : 1,46 Гбайт
Продолжительность : 1 ч. 46 м.
Общий поток : 1967 Кбит/сек
Название фильма : Contratiempo.2016 #TorpedoUK#
Дата кодирования : UTC 2018-09-05 15:34:20
Программа кодирования : mkvmerge v25.0.0 ('Prog Noir') 64-bit
Библиотека кодирования : libebml v1.3.6 + libmatroska v1.4.9

Видео
Идентификатор : 1
Формат : AVC
Формат/Информация : Advanced Video Codec
Профиль формата : [email protected]
Параметр CABAC формата : Да
Параметр ReFrames формата : 10 кадров
Идентификатор кодека : V_MPEG4/ISO/AVC
Продолжительность : 1 ч. 46 м.
Битрейт : 1519 Кбит/сек
Ширина : 976 пикселей
Высота : 408 пикселей
Соотношение сторон : 2,40:1
Режим частоты кадров : Постоянный
Частота кадров : 24,000 кадра/сек
Цветовое пространство : YUV
Субдискретизация насыщенности : 4:2:0
Битовая глубина : 8 бит
Тип развёртки : Прогрессивная
Бит/(Пиксели*Кадры) : 0.159
Размер потока : 1,12 Гбайт (77%)
Библиотека кодирования : x264 core 146 r2538 121396c
Настройки программы : cabac=1 / ref=10 / deblock=1:-3:-3 / analyse=0x3:0x113 / me=umh / subme=11 / psy=1 / psy_rd=0.98:0.04 / mixed_ref=1 / me_range=48 / chroma_me=1 / trellis=2 / 8x8dct=1 / cqm=0 / deadzone=21,11 / fast_pskip=1 / chroma_qp_offset=-3 / threads=6 / lookahead_threads=1 / sliced_threads=0 / nr=0 / decimate=1 / interlaced=0 / bluray_compat=0 / constrained_intra=0 / bframes=10 / b_pyramid=2 / b_adapt=2 / b_bias=0 / direct=3 / weightb=1 / open_gop=0 / weightp=2 / keyint=240 / keyint_min=24 / scenecut=40 / intra_refresh=0 / rc_lookahead=40 / rc=2pass / mbtree=1 / bitrate=1519 / ratetol=1.0 / qcomp=0.60 / qpmin=0 / qpmax=69 / qpstep=4 / cplxblur=20.0 / qblur=0.5 / vbv_maxrate=50000 / vbv_bufsize=62500 / nal_hrd=none / filler=0 / ip_ratio=1.40 / aq=1:1.00
Default : Да
Forced : Нет

Аудио
Идентификатор : 2
Формат : AC-3
Формат/Информация : Audio Coding 3
Расширение режима : CM (complete main)
Параметр Endianness формата : Big
Идентификатор кодека : A_AC3
Продолжительность : 1 ч. 46 м.
Вид битрейта : Постоянный
Битрейт : 448 Кбит/сек
Каналы : 6 каналов
Расположение каналов : Front: L C R, Side: L R, LFE
Частота : 48,0 КГц
Частота кадров : 31,250 кадров/сек (1536 spf)
Битовая глубина : 16 бит
Метод сжатия : С потерями
Размер потока : 340 Мбайт (23%)
Заголовок : [License]
Язык : Russian
Default : Да
Forced : Нет

Текст
Идентификатор : 3
Формат : UTF-8
Идентификатор кодека : S_TEXT/UTF8
Идентификатор кодека/Информация : UTF-8 Plain Text
Продолжительность : 1 ч. 39 м.
Битрейт : 98 бит/сек
Count of elements : 1230
Размер потока : 71,8 Кбайт (0%)
Заголовок : Full
Язык : Russian
Default : Нет
Forced : Нет

Меню
00:00:00.000 : es:Chapter 01
00:00:48.875 : es:Chapter 02
00:10:25.166 : es:Chapter 03
00:23:57.916 : es:Chapter 04
00:38:14.250 : es:Chapter 05
00:50:35.416 : es:Chapter 06
01:03:43.958 : es:Chapter 07
01:16:36.666 : es:Chapter 08
01:29:53.083 : es:Chapter 09
Источник http://BlaTor.org

Внимание! AdBlock блокирует показ скриншотов, все вопросы к разработчикам )))
Трекер:  [ 05-Сен-2018 18:50 ]

  

Скачать .torrent

Размер .torrent файла 15 KB


Размер: 1.46 GB
Хэш (hash) релиза: 66a1d688d959de252c66ae0c2b15f73f60acc36c
Подписка на обновления:

Торренты, похожие на Невидимый гость Contratiempo скачать торрент

Форум Название Автор Размер S L Добавлен
Зарубежные фильмы 2016-2019 (Новинки зарубежного кино) ·%· Невидимый гость / Contratiempo (2016) BDRip 1080p | D, P, L1 Galfimbul 70012663626.52 GB 0 0 1586605223

14:40

11-Апр-20

Зарубежные фильмы 2016-2019 (Новинки зарубежного кино) ·%· Невидимый гость / Contratiempo (2016) BDRip от HQ-ViDEO | D Galfimbul 23432581122.18 GB 0 0 1539764018

11:13

17-Окт-18

Зарубежные фильмы 2016-2019 (Новинки зарубежного кино) ·%· Невидимый гость / Contratiempo (2016) BDRip 720p от ExKinoRay | Локализованная версия | D, P | Лицензия Galfimbul 35646450773.32 GB 0 0 1536712208

03:30

12-Сен-18

Зарубежные фильмы 2016-2019 (Новинки зарубежного кино) ·%· Невидимый гость / Contratiempo (2016) Blu-ray 1080p | Rus Transfer | Локализованная версия | Лицензия Galfimbul 4220904393739.31 GB 0 0 1536519623

22:00

9-Сен-18

Зарубежные фильмы 2016-2019 (Новинки зарубежного кино) ·%· Невидимый гость / Contratiempo (2016) BDRip 1080p от HELLYWOOD | Локализованная версия | Лицензия Galfimbul 84950300907.91 GB 0 0 1536234615

14:50

6-Сен-18

Зарубежные фильмы 2016-2019 (Новинки зарубежного кино) ·%· Невидимый гость / Contratiempo (2016) HDRip | КПК | Локализованная версия | Лицензия Galfimbul 425095493405 MB 0 0 1536225611

12:20

6-Сен-18

Зарубежные фильмы 2016-2019 (Новинки зарубежного кино) ·%· Невидимый гость / Contratiempo (2016) BDRip от ExKinoRay | Локализованная версия | Лицензия Galfimbul 15695848261.46 GB 0 0 1536180617

23:50

5-Сен-18

Зарубежные фильмы 2016-2019 (Новинки зарубежного кино) ·%· Невидимый гость / Contratiempo (2016) BDRip 1080p от OlLanDGroup | Локализованная версия | Лицензия Galfimbul 89334266558.32 GB 0 0 1536127217

09:00

5-Сен-18

Зарубежные фильмы 2016-2019 (Новинки зарубежного кино) ·%· Невидимый гость / Contratiempo / The Invisible Guest (2016) BDRemux 1080p от ExKinoRay | GER Transfer | iTunes Galfimbul 2059885145119.18 GB 0 0 1530026426

18:20

26-Июн-18

Зарубежные фильмы 2016-2019 (Новинки зарубежного кино) ·%· Невидимый гость / Contratiempo (Ориол Паоло / Oriol Paulo) [2016, Испания, триллер, HDRip] Dub (iTunes) Galfimbul 15645614081.46 GB 0 0 1530010875

14:01

26-Июн-18

Зарубежные фильмы 2016-2019 (Новинки зарубежного кино) ·%· Невидимый гость / Contratiempo (2016) BDRip от MegaPeer | iTunes Galfimbul 783661056747 MB 0 0 1529910023

10:00

25-Июн-18

Зарубежные фильмы 2016-2019 (Новинки зарубежного кино) ·%· Невидимый гость / Contratiempo (2016) BDRip 720p от k.e.n & MegaPeer | D, P, L1 Galfimbul 49965349104.65 GB 0 0 1529899806

07:10

25-Июн-18

Зарубежные фильмы 2016-2019 (Новинки зарубежного кино) ·%· Невидимый гость / Contratiempo (2016) BDRip от MegaPeer | iTunes Galfimbul 15166627841.41 GB 0 0 1529877627

01:00

25-Июн-18

Зарубежные фильмы 2016-2019 (Новинки зарубежного кино) ·%· Невидимый гость / Contratiempo (2016) BDRip 1080p от qqss44 & MegaPeer | iTunes Galfimbul 58791567165.48 GB 0 0 1529877613

01:00

25-Июн-18

Зарубежные фильмы 2016-2019 (Новинки зарубежного кино) ·%· Невидимый гость / Contratiempo (2016) BDRip 720p от ExKinoRay | D, P | iTunes Galfimbul 83005322717.73 GB 0 0 1529870421

23:00

24-Июн-18

Зарубежные фильмы 2016-2019 (Новинки зарубежного кино) ·%· Невидимый гость / Contratiempo (2016) BDRip 1080p от ExKinoRay | D, P | iTunes Galfimbul 1527475520314.23 GB 0 0 1529870411

23:00

24-Июн-18

Зарубежные фильмы до 2016 ·· Невидимый гость / Contratiempo / The Invisible Guest (Ориол Паоло / Oriol Paulo) [2016, Испания, триллер, криминал, детектив, BDRip 1080p] MVO (AlexFilm) + VO (С. Малиновский) + Original (Spa) + Sub (Rus, Eng) Galfimbul 1094289828010.19 GB 0 0 1520723863

02:17

11-Мар-18

Зарубежные фильмы 2016-2019 (Новинки зарубежного кино) ·· Невидимый гость / Contratiempo (Ориол Паоло / Oriol Paulo) [2016, Испания, триллер, BDRip-AVC] MVO + Original Spa + Sub Rus, Eng Galfimbul 23416932822.18 GB 0 0 1512324086

21:01

3-Дек-17

Зарубежные фильмы 2016-2019 (Новинки зарубежного кино) ·· Невидимый гость / Contratiempo (Ориол Паоло / Oriol Paulo) [2016, Испания, триллер, BDRip] MVO + Original Spa + Sub Rus, Eng Galfimbul 22907267542.13 GB 0 0 1512203412

11:30

2-Дек-17

Еще никто не оставлял запись к записи скачать торрент Невидимый гость Contratiempo . Будь первым!

!Обратная связь