Скачать через торрент Роза и чертополох Серии: 1-2 из 2 Фильм бесплатно в хорошем качестве torrent

Скачивайте на UnionPeer.org фильмы через торрент без регистрации. Новинки кино в хорошем качестве через торрент. На UnionPeer.org можно скачать через торрент фильмы 2014 и 2015 годов. Самые новые фильмы.

Скачать торрент Роза и чертополох Серии: 1-2 из 2 бесплатно через .torrent фильм мультфильм сериал

Статистика раздачи
Размер:  1.13 GB   |    Зарегистрирован:  2 месяца 6 дней   |    .torrent скачан:  141 раз   |   
Раздают:  1  
   
загрузка...
 
Автор Сообщение

aleksan55

avatar aleksan55


Роза и чертополох

Год выпуска: 2018
Страна: Россия | Гамма Продакшн
Жанр: мелодрама
Продолжительность: 00:48:00
Субтитры: нет
Режиссёр: Ашот Кещян

В ролях:Евгения Лоза, Илья Оболонков, Алексей Анищенко, Екатерина Молоховская, Александра Солянкина, Александр Кульков
Описание:
После измены мужа Ольга готова бросить Михаила. Но он попадает в аварию, и Ольга соглашается дать их отношениям последний шанс.Вскоре кто-то начинает ее тайно преследовать. Однако все вокруг считают подозрения Ольги навязчивым бредом. Главный кошмар Ольги: сойти с ума, как и ее погибшая мать, становится реальностью.Пытаясь докопаться до правды, Ольга понимает, что ее пытаются убить. И спасти ее может лишь тот, кто ей поверит.

Качество: SATRip-AVC
Формат: MKV
Видео кодек: H.264
Аудио кодек: AC3
Видео: MPEG4 Video (H264), 720x400, 25fps,1700 Kbps,bit/pixel 0.236
Аудио : AC3 48000Hz, stereo, 192 kbps,2 ch
Общее
Уникальный идентификатор : 212169122089769450211544295136379551350 (0x9F9E495B630D9BE9A1F824E9068C3E76)
Полное имя : F:\Роза и чертополох\01 серия_Роза и чертополох _rip by_Aleksan55.mkv
Формат : Matroska
Версия формата : Version 2
Размер файла : 582 Мбайт
Продолжительность : 48 м. 2 с.
Общий поток : 1694 Кбит/сек
Дата кодирования : UTC 2018-09-07 17:31:25
Программа кодирования : mkvmerge v7.8.0 ('River Man') 32bit built on Apr 3 2015 12:11:22
Библиотека кодирования : libebml v1.3.1 + libmatroska v1.4.2

Видео
Идентификатор : 1
Формат : AVC
Формат/Информация : Advanced Video Codec
Профиль формата : High@L4.1
Параметр CABAC формата : Да
Параметр ReFrames формата : 14 кадров
Идентификатор кодека : V_MPEG4/ISO/AVC
Продолжительность : 48 м. 2 с.
Битрейт : 1500 Кбит/сек
Ширина : 720 пикселей
Высота : 400 пикселей
Соотношение сторон : 16:9
Режим частоты кадров : Постоянный
Частота кадров : 25,000 кадров/сек
Цветовое пространство : YUV
Субдискретизация насыщенности : 4:2:0
Битовая глубина : 8 бит
Тип развёртки : Прогрессивная
Бит/(Пиксели*Кадры) : 0.208
Размер потока : 505 Мбайт (87%)
Библиотека кодирования : x264 core 146 r2538 121396c
Настройки программы : cabac=1 / ref=14 / deblock=1:-1:-1 / analyse=0x3:0x133 / me=umh / subme=9 / psy=1 / psy_rd=0.90:0.00 / mixed_ref=0 / me_range=32 / chroma_me=1 / trellis=2 / 8x8dct=1 / cqm=0 / deadzone=21,11 / fast_pskip=1 / chroma_qp_offset=-2 / threads=12 / lookahead_threads=1 / sliced_threads=0 / nr=0 / decimate=0 / interlaced=0 / bluray_compat=0 / constrained_intra=0 / bframes=14 / b_pyramid=2 / b_adapt=1 / b_bias=0 / direct=3 / weightb=1 / open_gop=0 / weightp=2 / keyint=250 / keyint_min=25 / scenecut=40 / intra_refresh=0 / rc_lookahead=40 / rc=2pass / mbtree=1 / bitrate=1500 / ratetol=1.0 / qcomp=0.60 / qpmin=0 / qpmax=39 / qpstep=4 / cplxblur=20.0 / qblur=0.5 / ip_ratio=1.40 / aq=1:1.00
Default : Да
Forced : Нет
Цветовой диапазон : Limited
Основные цвета : BT.601 PAL
Характеристики трансфера : BT.470 System B, BT.470 System G
Коэффициенты матрицы : BT.601

Аудио
Идентификатор : 2
Формат : AC-3
Формат/Информация : Audio Coding 3
Расширение режима : CM (complete main)
Параметр Endianness формата : Big
Идентификатор кодека : A_AC3
Продолжительность : 48 м. 2 с.
Вид битрейта : Постоянный
Битрейт : 192 Кбит/сек
Каналы : 2 канала
Расположение каналов : Front: L R
Частота : 48,0 КГц
Частота кадров : 31,250 кадров/сек (1536 spf)
Битовая глубина : 16 бит
Метод сжатия : С потерями
Размер потока : 66,0 Мбайт (11%)
Default : Да
Forced : Нет :


Трекер:  [ 07-Сен-2018 22:48 ]

  

Скачать .torrent

Размер .torrent файла 12 KB


Размер: 1.13 GB
Хэш (hash) релиза: 20b6860d8c67d7f65295bb9419a614cd6db0f15c
Подписка на обновления:

Еще никто не оставлял запись к записи скачать торрент Роза и чертополох Серии: 1-2 из 2 . Будь первым!

!Обратная связь