Скачать через торрент Взятка Фильм бесплатно в хорошем качестве torrent

Скачивайте на UnionPeer.org фильмы через торрент без регистрации. Новинки кино в хорошем качестве через торрент. На UnionPeer.org можно скачать через торрент фильмы 2014 и 2015 годов. Самые новые фильмы.

Скачать торрент Взятка бесплатно через .torrent фильм мультфильм сериал

Статистика раздачи
Размер:  191 MB   |    Зарегистрирован:  13 дней   |    .torrent скачан:  233 раза   |   
Раздают:  1  
   
загрузка...
 
Автор Сообщение

Galfimbul

avatar Galfimbul


Название: Взятка
Год выхода: 2018
Жанр: Комедия, короткометражный
Режиссер: Алексей Харитонов
Актеры: Михаил Трухин, Сергей Бурунов, Николай Ковбас, Сергей Анненков, Александр Ревенко

Описание:
Гражданин предлагает следователю взятку, чтобы закрыть дело… о взятке. Но события разворачиваются непредсказуемо.


Производство: Россия / FakePublish, Life Is Short, PinUp Production
Дата премьеры в России: 4 июня 2018
Продолжительность: 00:12:17
Перевод: Не требуется (русский)
Субтитры: Отсутствуют

Файл
Качество видео: WEBRip
Формат видео: AVI
Видео: 720x304 (2.37:1), 23.976 fps, XviD build 73 ~1972 kbps avg, 0.38 bit/pixel
Аудио: 48 kHz, AC3 Dolby Digital, 2/0 (L,R) ch, ~192 kbps
General
Complete name : D:Vzyatka.2018.WEB-DLRip.avi
Format : AVI
Format/Info : Audio Video Interleave
File size : 191 MiB
Duration : 12mn 17s
Overall bit rate : 2 174 Kbps
Writing application : VirtualDubMod 1.5.10.3 | www.virtualdub-fr.org || (build 2550/release)
Writing library : VirtualDubMod build 2550/release

Video
ID : 0
Format : MPEG-4 Visual
Format profile : Advanced Simple@L5
Format settings, BVOP : 1
Format settings, QPel : No
Format settings, GMC : No warppoints
Format settings, Matrix : Default (MPEG)
Codec ID : XVID
Codec ID/Hint : XviD
Duration : 12mn 17s
Bit rate : 1 972 Kbps
Width : 720 pixels
Height : 304 pixels
Display aspect ratio : 2.35:1
Frame rate : 23.976 fps
Color space : YUV
Chroma subsampling : 4:2:0
Bit depth : 8 bits
Scan type : Progressive
Compression mode : Lossy
Bits/(Pixel*Frame) : 0.376
Stream size : 173 MiB (91%)
Writing library : XviD 73

Audio
ID : 1
Format : AC-3
Format/Info : Audio Coding 3
Mode extension : CM (complete main)
Format settings, Endianness : Big
Codec ID : 2000
Duration : 12mn 17s
Bit rate mode : Constant
Bit rate : 192 Kbps
Channel count : 2 channels
Channel positions : Front: L R
Sampling rate : 48.0 KHz
Bit depth : 16 bits
Compression mode : Lossy
Stream size : 16.9 MiB (9%)
Alignment : Split accross interleaves
Interleave, duration : 42 ms (1.00 video frame)
Interleave, preload duration : 500 ms
Источник http://BlaTor.org

Трекер:  [ 09-Сен-2018 15:30 ]

  

Скачать .torrent

Размер .torrent файла 15 KB


Размер: 191 MB
Хэш (hash) релиза: ef268b8d25a735417ad175c4f52b0e84025267ee
Подписка на обновления:

Еще никто не оставлял запись к записи скачать торрент Взятка . Будь первым!

!Обратная связь