Скачать через торрент Импульс Urge Фильм бесплатно в хорошем качестве torrent

Скачивайте на UnionPeer.org фильмы через торрент без регистрации. Новинки кино в хорошем качестве через торрент. На UnionPeer.org можно скачать через торрент фильмы 2014 и 2015 годов. Самые новые фильмы.

Скачать торрент Импульс Urge бесплатно через .torrent фильм мультфильм сериал

Статистика раздачи
Размер:  746 MB   |    Зарегистрирован:  5 лет 5 месяцев   |    .torrent скачан:  149 раз   |   
Раздают:  1  
 

Скачать Импульс / Urge (2016) BDRip-AVC от New-Team | D через torrent

 
 
Автор Сообщение

Galfimbul

avatar Galfimbul


Импульс
Urge

«Новый оттенок твоего удовольствия»



Страна: США
Жанр: триллер

Год выпуска: 2016
Продолжительность: 01:30:40

Перевод: Профессиональный (полное дублирование) [iTunes]
Субтитры: нет
Оригинальная аудиодорожка: нет

Режиссер: Аарон Кауфман / Aaron Kaufman

В ролях: Пирс Броснан, Джастин Чатвин, Дэнни Мастерсон, Эшли Грин, Ник Тун, Алексис Нэп, Крис Гир, Бар Пали, Ки Хо, Элисон Ломан, Джаггер Давид Фишман-Сальгеро, Эрик Дэвис

Описание:
Абсолютно все ищут новых ощущений. А что если на земле есть место, где дают возможность испытать любой оттенок удовольствия? Группа друзей прилетает на остров и решает попробовать вещество, которое лишит их способности контролировать свои порывы. Теперь они могут делать все, о чем они так долго мечтали. Но как далеко они готовы зайти в поисках наивысшего наслаждения?



Автор рипа: stalkerok

Сэмпл

Качество видео: BDRip-AVC [Urge (2016) Blu-ray Disc -BLUEBIRD]
Формат видео: MKV
Видео кодек: AVC
Аудио кодек: AAC
Видео: AVC, 1085 Кбит/сек, 862x466 (1.85:1), 23,976 кадр/сек
Аудио: AAC, 64 Кбит/сек, 48,0 КГц / 24,0 КГц, 2.0 - русский
Навигация по главам: есть
---[Information] [03.05.2018 20:08:44] x264 [info]: frame I:993 Avg QP:17.24 size: 42364
---[Information] [03.05.2018 20:08:44] x264 [info]: frame P:31428 Avg QP:21.66 size: 11763
---[Information] [03.05.2018 20:08:44] x264 [info]: frame B:98020 Avg QP:23.04 size: 3319

Общее
Уникальный идентификатор : 210458039441003688314281812200226890125 (0x9E54BE78124EB06292EB383DE18D218D)
Полное имя : O:!RipsUrge (2016)Urge.2016.BDRip.x264.Rus..stalkerok.New-Team.mkv
Формат : Matroska
Версия формата : Version 4 / Version 2
Размер файла : 746 Мбайт
Продолжительность : 1 ч. 30 м.
Общий поток : 1150 Кбит/сек
Название фильма : Urge (2016) (Rip by stalkerok)
Дата кодирования : UTC 2018-07-06 20:29:35
Программа кодирования : mkvmerge v8.6.1 ('Flying') 64bit
Библиотека кодирования : libebml v1.3.3 + libmatroska v1.4.4

Видео
Идентификатор : 1
Формат : AVC
Формат/Информация : Advanced Video Codec
Профиль формата : [email protected]
Параметр CABAC формата : Да
Параметр ReFrames формата : 16 кадров
Идентификатор кодека : V_MPEG4/ISO/AVC
Продолжительность : 1 ч. 30 м.
Битрейт : 1085 Кбит/сек
Ширина : 862 пикселя
Высота : 466 пикселей
Соотношение сторон : 1,85:1
Режим частоты кадров : Постоянный
Частота кадров : 23,976 (24000/1001) кадра/сек
Цветовое пространство : YUV
Субдискретизация насыщенности : 4:2:0
Битовая глубина : 8 бит
Тип развёртки : Прогрессивная
Бит/(Пиксели*Кадры) : 0.113
Размер потока : 703 Мбайт (94%)
Заголовок : Urge (2016) (Rip by stalkerok)
Библиотека кодирования : x264 core 155 r2901 7d0ff22
Настройки программы : cabac=1 / ref=16 / deblock=1:-3:-2 / analyse=0x3:0x133 / me=umh / subme=11 / psy=1 / psy_rd=1.00:0.00 / mixed_ref=1 / me_range=32 / chroma_me=1 / trellis=2 / 8x8dct=1 / cqm=0 / deadzone=21,11 / fast_pskip=0 / chroma_qp_offset=-2 / threads=12 / lookahead_threads=3 / sliced_threads=0 / nr=0 / decimate=0 / interlaced=0 / bluray_compat=0 / constrained_intra=0 / bframes=16 / b_pyramid=2 / b_adapt=2 / b_bias=0 / direct=3 / weightb=1 / open_gop=0 / weightp=2 / keyint=240 / keyint_min=23 / scenecut=40 / intra_refresh=0 / rc_lookahead=60 / rc=2pass / mbtree=0 / bitrate=1085 / ratetol=1.0 / qcomp=0.65 / qpmin=0 / qpmax=69 / qpstep=4 / cplxblur=20.0 / qblur=0.5 / vbv_maxrate=50000 / vbv_bufsize=62500 / nal_hrd=none / filler=0 / ip_ratio=1.40 / pb_ratio=1.30 / aq=3:0.95 / zones=118213,127686,q=36
Default : Да
Forced : Нет

Аудио
Идентификатор : 2
Формат : AAC
Формат/Информация : Advanced Audio Codec
Профиль формата : HE-AAC / LC
Идентификатор кодека : A_AAC
Продолжительность : 1 ч. 30 м.
Битрейт : 64,0 Кбит/сек
Каналы : 2 канала
Расположение каналов : Front: L R
Частота : 48,0 КГц / 24,0 КГц
Частота кадров : 23,438 кадра/сек (1024 spf)
Метод сжатия : С потерями
Задержка видео : 31 мс.
Размер потока : 41,5 Мбайт (6%)
Язык : Russian
Default : Да
Forced : Нет

Меню
00:00:00.000 : en:Chapter 1
00:05:49.932 : en:Chapter 2
00:12:17.235 : en:Chapter 3
00:15:08.782 : en:Chapter 4
00:20:13.002 : en:Chapter 5
00:24:56.744 : en:Chapter 6
00:31:02.067 : en:Chapter 7
00:35:52.608 : en:Chapter 8
00:39:56.059 : en:Chapter 9
00:45:06.704 : en:Chapter 10
00:51:05.061 : en:Chapter 11
00:56:21.710 : en:Chapter 12
01:00:50.021 : en:Chapter 13
01:05:21.958 : en:Chapter 14
01:09:44.137 : en:Chapter 15
01:16:12.649 : en:Chapter 16


Источник http://BlaTor.org

Внимание! AdBlock блокирует показ скриншотов, все вопросы к разработчикам )))
Трекер:  [ 09-Сен-2018 18:30 ]

  

Скачать .torrent

Размер .torrent файла 15 KB


Размер: 746 MB
Хэш (hash) релиза: ce8d75011692fefd52f3a5bc9a4fca66d86ac675
Подписка на обновления:

Торренты, похожие на Импульс Urge скачать торрент

Форум Название Автор Размер S L Добавлен
Зарубежные фильмы 2016-2019 (Новинки зарубежного кино) ·%· Импульс / Urge (2016) BDRip-AVC от New-Team | D Galfimbul 23684653182.21 GB 0 0 1536505838

18:10

9-Сен-18

Зарубежные фильмы 2016-2019 (Новинки зарубежного кино) ·%· Импульс / Urge (2016) BDRip-AVC от New-Team | D Galfimbul 15726754181.46 GB 0 0 1536501651

17:00

9-Сен-18

Зарубежные фильмы 2016-2019 (Новинки зарубежного кино) ·· Импульс / Urge (Аарон Кауфман / Aaron Kaufman) [2016, США, Триллер, BDRip] Dub (iTunes) Galfimbul 15259141701.42 GB 0 0 1481803130

14:58

15-Дек-16

Зарубежные фильмы 2016-2019 (Новинки зарубежного кино) ·· Импульс / Urge (Аарон Кауфман) [2016, триллер, HDRip] iTunes Galfimbul 14682644481.37 GB 0 0 1481316117

23:41

9-Дек-16

Зарубежные фильмы 2016-2019 (Новинки зарубежного кино) ·· Импульс / Urge (Аарон Кауфман) [2016, триллер, BDRip 1080p] Galfimbul 79231645377.38 GB 0 0 1470892272

08:11

11-Авг-16

Зарубежные фильмы 2016-2019 (Новинки зарубежного кино) ·· Импульс / Urge (Аарон Кауфман) [2016, триллер, HDRip] Galfimbul 14675128321.37 GB 0 0 1470890629

07:43

11-Авг-16

Зарубежные фильмы 2016-2019 (Новинки зарубежного кино) ·· Импульс / Urge (Аарон Кауфман) [2016, триллер, BDRip 720p] Galfimbul 42029139393.91 GB 0 0 1470890625

07:43

11-Авг-16

Зарубежные фильмы до 2016 ·· Импульс / Побуждение / Urge (Аарон Кауфман / Aaron Kaufman) [2016, США, триллер, BDRip 1080p] Dub (iTunes | CineLab SoundMix) + 2x Sub (Eng) + Original Eng Galfimbul 1105812584810.3 GB 0 0 1482858031

20:00

27-Дек-16

Еще никто не оставлял запись к записи скачать торрент Импульс Urge . Будь первым!

!Обратная связь