Скачать через торрент Профессионал Сибирь Фильм бесплатно в хорошем качестве torrent

Скачивайте на UnionPeer.org фильмы через торрент без регистрации. Новинки кино в хорошем качестве через торрент. На UnionPeer.org можно скачать через торрент фильмы 2014 и 2015 годов. Самые новые фильмы.

Скачать торрент Профессионал Сибирь бесплатно через .torrent фильм мультфильм сериал

Статистика раздачи
Размер:  1.46 GB   |    Зарегистрирован:  8 дней   |    .torrent скачан:  197 раз   |   
Раздают:  1  
   
загрузка...
 
Автор Сообщение

Galfimbul

avatar Galfimbul


Профессионал / Сибирь / Siberia
«Один против русской мафии»


Год выпуска: 2018
Страна: Австралия
Производство: Addictive Pictures, Causeway Films, Head Gear Films
Жанр: Драма, ужасы

Режиссёр: Бен Хоулинг, Иоланда Рамке
В ролях: Мартин Фриман, Энтони Хэйес, Сьюзи Портер, Карин Пиритос, Крис МакКвейд, Наташа Вэнганин, Брюс Картер, Симоне Ландерс, Дэвид Галпилил, Джоесиа Амос

Перевод: Профессиональный (многоголосый, закадровый) | [HDRezka Studio], Любительский (одноголосый, закадровый) [BadBajo]
Субтитры: Русские (полные), Английские (хардсаб на русскую речь, SDH)
Реклама: Отсутствует

Описание: История американского торговца драгоценными камнями, который едет в Россию для встречи со своим партнером Петром и продажи голубых бриллиантов. Пётр с алмазами пропадает без вести, и герой отправляется вглубь Сибири на его поиски. Он и догадаться не мог, что его ждёт впереди.



Качество: BDRip-AVC | BluRay Disc | Siberia 2018 BluRay 1080p AVC DTS-HD MA5.1-MTeam
Продолжительность: 01:44:42

Формат: MKV
Видео кодек: MPEG-4 AVC
Аудио кодек: AC3
Видео: 976x408 (2.40:1), 23,976 fps, x264 ~1 546 kbps avg, 0.162 bit/pixel
Аудио #1: 48 kHz, AC3 Dolby Digital, 2 (L,R) ch, ~192.00 kbps avg | RUS (HDRezka Studio)
Аудио #2: 48 kHz, AC3 Dolby Digital, 3/2 (L,C,R,l,r) + LFE ch, ~256.00 kbps avg | RUS (BadBajo)

Дата премьеры (мир): 4 июля 2018
Дата премьеры (РФ): 27 сентября 2018, «Экспонента»
Общее
Уникальный идентификатор : 230971028792026744972710862296660954211 (0xADC366EDA4AFACB55D610029BF61CC63)
Полное имя : F:OlLanDGroupSiberia.2018.BDRip(AVC).OlLanDGroup.mkv
Формат : Matroska
Версия формата : Version 4 / Version 2
Размер файла : 1,46 Гбайт
Продолжительность : 1 ч. 44 м.
Общий поток : 1995 Кбит/сек
Название фильма : Siberia.2018 #TorpedoUK#
Дата кодирования : UTC 2018-09-14 04:07:53
Программа кодирования : mkvmerge v25.0.0 ('Prog Noir') 64-bit
Библиотека кодирования : libebml v1.3.6 + libmatroska v1.4.9

Видео
Идентификатор : 1
Формат : AVC
Формат/Информация : Advanced Video Codec
Профиль формата : High@L4.1
Параметр CABAC формата : Да
Параметр ReFrames формата : 10 кадров
Идентификатор кодека : V_MPEG4/ISO/AVC
Продолжительность : 1 ч. 44 м.
Битрейт : 1546 Кбит/сек
Ширина : 976 пикселей
Высота : 408 пикселей
Соотношение сторон : 2,40:1
Режим частоты кадров : Постоянный
Частота кадров : 23,976 (24000/1001) кадра/сек
Цветовое пространство : YUV
Субдискретизация насыщенности : 4:2:0
Битовая глубина : 8 бит
Тип развёртки : Прогрессивная
Бит/(Пиксели*Кадры) : 0.162
Размер потока : 1,13 Гбайт (77%)
Библиотека кодирования : x264 core 146 r2538 121396c
Настройки программы : cabac=1 / ref=10 / deblock=1:-3:-3 / analyse=0x3:0x113 / me=umh / subme=11 / psy=1 / psy_rd=1.00:0.03 / mixed_ref=1 / me_range=48 / chroma_me=1 / trellis=2 / 8x8dct=1 / cqm=0 / deadzone=21,11 / fast_pskip=1 / chroma_qp_offset=-3 / threads=6 / lookahead_threads=1 / sliced_threads=0 / nr=0 / decimate=1 / interlaced=0 / bluray_compat=0 / constrained_intra=0 / bframes=10 / b_pyramid=2 / b_adapt=2 / b_bias=0 / direct=3 / weightb=1 / open_gop=0 / weightp=2 / keyint=240 / keyint_min=23 / scenecut=40 / intra_refresh=0 / rc_lookahead=40 / rc=2pass / mbtree=0 / bitrate=1546 / ratetol=1.0 / qcomp=0.60 / qpmin=0 / qpmax=69 / qpstep=4 / cplxblur=20.0 / qblur=0.5 / vbv_maxrate=50000 / vbv_bufsize=62500 / nal_hrd=none / filler=0 / ip_ratio=1.40 / pb_ratio=1.30 / aq=1:1.00
Default : Да
Forced : Нет

Аудио #1
Идентификатор : 2
Формат : AC-3
Формат/Информация : Audio Coding 3
Расширение режима : CM (complete main)
Параметр Endianness формата : Big
Идентификатор кодека : A_AC3
Продолжительность : 1 ч. 44 м.
Вид битрейта : Постоянный
Битрейт : 192 Кбит/сек
Каналы : 2 канала
Расположение каналов : Front: L R
Частота : 48,0 КГц
Частота кадров : 31,250 кадров/сек (1536 spf)
Битовая глубина : 16 бит
Метод сжатия : С потерями
Размер потока : 144 Мбайт (10%)
Заголовок : MVO [HDRezka Studio]
Язык : Russian
Default : Да
Forced : Нет

Аудио #2
Идентификатор : 3
Формат : AC-3
Формат/Информация : Audio Coding 3
Расширение режима : CM (complete main)
Параметр Endianness формата : Big
Идентификатор кодека : A_AC3
Продолжительность : 1 ч. 44 м.
Вид битрейта : Постоянный
Битрейт : 256 Кбит/сек
Каналы : 6 каналов
Расположение каналов : Front: L C R, Side: L R, LFE
Частота : 48,0 КГц
Частота кадров : 31,250 кадров/сек (1536 spf)
Битовая глубина : 16 бит
Метод сжатия : С потерями
Размер потока : 192 Мбайт (13%)
Заголовок : VO [BadBajo]
Язык : Russian
Default : Нет
Forced : Нет

Текст #1
Идентификатор : 4
Формат : UTF-8
Идентификатор кодека : S_TEXT/UTF8
Идентификатор кодека/Информация : UTF-8 Plain Text
Продолжительность : 1 ч. 32 м.
Битрейт : 40 бит/сек
Count of elements : 621
Размер потока : 27,7 Кбайт (0%)
Заголовок : Full
Язык : Russian
Default : Нет
Forced : Нет

Текст #2
Идентификатор : 5
Формат : UTF-8
Идентификатор кодека : S_TEXT/UTF8
Идентификатор кодека/Информация : UTF-8 Plain Text
Продолжительность : 1 ч. 37 м.
Битрейт : 29 бит/сек
Count of elements : 807
Размер потока : 20,9 Кбайт (0%)
Заголовок : SDH
Язык : English
Default : Нет
Forced : Нет

Меню
00:00:00.000 : en:Chapter 1
00:09:22.937 : en:Chapter 2
00:17:40.350 : en:Chapter 3
00:22:02.237 : en:Chapter 4
00:29:52.499 : en:Chapter 5
00:38:31.225 : en:Chapter 6
00:44:18.739 : en:Chapter 7
00:51:32.380 : en:Chapter 8
00:57:34.409 : en:Chapter 9
01:04:05.716 : en:Chapter 10
01:13:01.543 : en:Chapter 11
01:18:49.558 : en:Chapter 12
01:23:58.616 : en:Chapter 13
01:28:55.288 : en:Chapter 14
01:32:42.306 : en:Chapter 15
01:36:17.313 : en:Chapter 16
Источник http://BlaTor.org

Трекер:  [ 14-Сен-2018 07:30 ]

  

Скачать .torrent

Размер .torrent файла 15 KB


Размер: 1.46 GB
Хэш (hash) релиза: 42be0e3c0375517b9b0f94db388d60ed64a744cf
Подписка на обновления:

Торренты, похожие на Профессионал Сибирь скачать торрент

Форум Название Автор Размер S L Добавлен
Зарубежные фильмы 2016-2018 (Новинки зарубежного кино) ·%· Профессионал / Сибирь / Siberia (2018) BDRip 720p от k.e.n & MegaPeer | P, L1 Galfimbul 43372830474.04 GB 0 0 1537338010

09:20

19-Сен-18

Зарубежные фильмы 2016-2018 (Новинки зарубежного кино) ·%· Профессионал / Сибирь / Siberia (2018) BDRip 1080p от OlLanDGroup | P, L1 Galfimbul 79159215657.37 GB 0 0 1536951645

22:00

14-Сен-18

Зарубежные фильмы 2016-2018 (Новинки зарубежного кино) ·%· Профессионал / Сибирь / Siberia (2018) WEB-DLRip от ExKinoRay | HDrezka Studio Galfimbul 782092288746 MB 0 0 1534702212

21:10

19-Авг-18

Зарубежные фильмы 2016-2018 (Новинки зарубежного кино) ·%· Профессионал / Сибирь / Siberia (2018) WEB-DLRip | HDRezka Studio Galfimbul 15304098581.43 GB 0 0 1534584040

12:20

18-Авг-18

Зарубежные фильмы 2016-2018 (Новинки зарубежного кино) ·%· Профессионал / Сибирь / Siberia (2018) WEB-DL 720p от ExKinoRay | BadBajo Galfimbul 32072895972.99 GB 0 0 1531683607

22:40

15-Июл-18

Зарубежные фильмы 2016-2018 (Новинки зарубежного кино) ·%· Профессионал / Сибирь / Siberia (2018) WEB-DLRip-AVC от ExKinoRay | BadBajo Galfimbul 23545972572.19 GB 0 0 1531624806

06:20

15-Июл-18

Зарубежные фильмы 2016-2018 (Новинки зарубежного кино) ·%· Профессионал / Сибирь / Siberia (2018) WEB-DL 1080p | BadBajo Galfimbul 84244898197.85 GB 0 0 1531545613

08:20

14-Июл-18

Зарубежные фильмы 2016-2018 (Новинки зарубежного кино) ·%· Профессионал / Сибирь / Siberia (2018) WEB-DLRip от ExKinoRay | BadBajo Galfimbul 15931760641.48 GB 0 0 1531542012

07:20

14-Июл-18

Еще никто не оставлял запись к записи скачать торрент Профессионал Сибирь . Будь первым!

!Обратная связь