Скачать через торрент Потерянное счастье Фильм бесплатно в хорошем качестве torrent

Скачивайте на UnionPeer.org фильмы через торрент без регистрации. Новинки кино в хорошем качестве через торрент. На UnionPeer.org можно скачать через торрент фильмы 2014 и 2015 годов. Самые новые фильмы.

Скачать торрент Потерянное счастье бесплатно через .torrent фильм мультфильм сериал

Статистика раздачи
Размер:  4.54 GB   |    Зарегистрирован:  1 месяц 7 дней   |    .torrent скачан:  87 раз   |   
Раздают:  1  
   
загрузка...
 
Автор Сообщение

Galfimbul

avatar Galfimbul


Потерянное счастье



[b]Год выпуска:
2018
Страна: Россия
Жанр: мелодрама
Перевод: Не требуется [Русский]
Продолжительность: 01:29:48
Режиссер: Глеб Якубовский
В ролях: Ксения Кузнецова (Валентина Бондаренко), Анжелика Маркелова, Алексей Фатеев, Мария Звонарева (Тамара), Светлана Тимофеева-Летуновская, Зоя Лирова, Виталия Корниенко, Игорь Климов, Павел Савинов (Антон), Наталья Панюшева (Татьяна, повариха)
Описание:
Валентина Бондаренко живет в маленьком шахтерском городке вместе с любимым мужем Михаилом, дочкой Лизой и матерью. Внезапно в шахте происходит взрыв метана, и Михаил погибает. Теперь Вале одной придется поднимать дочь, обеспечивать себя и мать. Подруга Тамара предлагает ей отправиться в Москву в поисках лучшей жизни. Валя уезжает в надежде, что через полгода перевезет в столицу родных...
Рейтинг:
Качество: HDTV 1080p
Формат: MKV
Видео: AVC, 1920x1080 (16:9), 7050 kbps, 25 fps, 0,136 bpp
Аудио: AC3 / 2.0 / 48 kHz / 192 kbps /

General
Unique ID : 214496091561763507885590662498591642696 (0xA15E71CF4AE1D95A8522F11751471448)
Complete name : E:Запись с твPoteryannoe schaste.2018.HDTV 1080p.by.White Smoke.R.G.Generalfilm.mkv
Format : Matroska
Format version : Version 4 / Version 2
File size : 4.54 GiB
Duration : 1 h 29 min
Overall bit rate mode : Constant
Overall bit rate : 7 238 kb/s
Movie name : Poteryannoe schaste.2018.HDTV 1080p.by.White Smoke.R.G.Generalfilm.mkv
Encoded date : UTC 2018-09-15 17:41:51
Writing application : mkvmerge v6.8.0 ('Theme for Great Cities') 64bit built on Mar 2 2014 21:34:26
Writing library : libebml v1.3.0 + libmatroska v1.4.1
Cover : Yes
Attachments : cover.jpg

Video
ID : 1
Format : AVC
Format/Info : Advanced Video Codec
Format profile : High@L4.1
Format settings, CABAC : Yes
Format settings, ReFrames : 3 frames
Codec ID : V_MPEG4/ISO/AVC
Duration : 1 h 29 min
Bit rate mode : Constant
Bit rate : 7 051 kb/s
Width : 1 920 pixels
Height : 1 080 pixels
Display aspect ratio : 16:9
Frame rate mode : Constant
Frame rate : 25.000 FPS
Standard : PAL
Color space : YUV
Chroma subsampling : 4:2:0
Bit depth : 8 bits
Scan type : Progressive
Bits/(Pixel*Frame) : 0.136
Stream size : 4.33 GiB (95%)
Default : Yes
Forced : No
Color range : Limited
Color primaries : BT.709
Transfer characteristics : BT.709
Matrix coefficients : BT.709

Audio
ID : 2
Format : AC-3
Format/Info : Audio Coding 3
Mode extension : CM (complete main)
Format settings, Endianness : Big
Codec ID : A_AC3
Duration : 1 h 29 min
Bit rate mode : Constant
Bit rate : 192 kb/s
Channel(s) : 2 channels
Channel positions : Front: L R
Sampling rate : 48.0 kHz
Frame rate : 31.250 FPS (1536 spf)
Compression mode : Lossy
Stream size : 123 MiB (3%)
Default : Yes
Forced : No
Источник http://BlaTor.org

Трекер:  [ 15-Сен-2018 22:00 ]

  

Скачать .torrent

Размер .torrent файла 12 KB


Размер: 4.54 GB
Хэш (hash) релиза: 0516166eb39eb9531e13d26e6c2c28813a64e693
Подписка на обновления:

Торренты, похожие на Потерянное счастье скачать торрент

Форум Название Автор Размер S L Добавлен
Российские фильмы 2016-2018 (Новинки русского кино) ·%· Потерянное счастье (2018) HDTVRip от Portablius Galfimbul 780814336745 MB 0 0 1537201313

19:21

17-Сен-18

Российские фильмы 2016-2018 (Новинки русского кино) ·%· Потерянное счастье (2018) HDTVRip 720p от MediaClub Galfimbul 28236244432.63 GB 0 0 1537116023

19:40

16-Сен-18

Российские фильмы 2016-2018 (Новинки русского кино) ·%· Потерянное счастье (2018) WEB-DLRip от Files-x Galfimbul 14646845441.36 GB 0 0 1537016084

15:54

15-Сен-18

Фильмы Ближнего Зарубежья ·· Потерянное счастье (Феруза Эгамбердиева) [2018, Казахстан, драма, DVB] Dub Galfimbul 11020119441.03 GB 0 0 1525679650

10:54

7-Май-18

Российские сериалы ·· Вероника. Потерянное счастье / Серии: 1-16 из 16 (Мирослав Малич) [2012, мелодрама, WEBRip (1080p)] Galfimbul 1996305265418.59 GB 0 0 1471799459

20:10

21-Авг-16

Российские сериалы ·· Вероника. Потерянное счастье / Серии: 1-14 из 16 (Мирослав Малич) [2012, Мелодрама, детектив, HDTVRip] damien1990 88195604488.21 GB 0 0 1363283859

20:57

14-Мар-13

Российские сериалы ·· Вероника. Потерянное счастье / Серии: 01-16 из 16 (Мирослав Малич) [2012, Мелодрама, HDTV 1080i] damien1990 4642081787243.23 GB 0 0 1363041908

01:45

12-Мар-13

Российские сериалы ·· Вероника. Потерянное счастье / Серии: 1-16 из 16 (Мирослав Малич) [2012, мелодрама, SATRip] L 92297871368.6 GB 0 0 1361698849

12:40

24-Фев-13

Российские сериалы ·· Вероника. Потерянное счастье / Серии: 1-16 из 16 (Мирослав Малич) [2012, Мелодрама, SATRip-AVC] Galfimbul 70559011836.57 GB 0 0 1361696886

12:08

24-Фев-13

Еще никто не оставлял запись к записи скачать торрент Потерянное счастье . Будь первым!

!Обратная связь