Скачать через торрент Черновик Фильм бесплатно в хорошем качестве torrent

Скачивайте на UnionPeer.org фильмы через торрент без регистрации. Новинки кино в хорошем качестве через торрент. На UnionPeer.org можно скачать через торрент фильмы 2014 и 2015 годов. Самые новые фильмы.

Скачать торрент Черновик бесплатно через .torrent фильм мультфильм сериал

Статистика раздачи
Размер:  747 MB   |    Зарегистрирован:  2 месяца 25 дней   |    .torrent скачан:  185 раз   |   
Раздают:  1  
   
загрузка...
 
Автор Сообщение

Galfimbul

avatar Galfimbul


Черновик



[b]Год выхода:
2018
Жанр: Фантастика
Режиссер: Сергей Мокрицкий
В ролях: Никита Волков, Евгений Ткачук, Ольга Боровская, Юлия Пересильд, Северия Янушаускайте, Евгений Цыганов, Елена Яковлева, Ирина Демидкина, Андрей Мерзликин, Андрей Руденский

О фильме: Молодой москвич Кирилл — талантливый дизайнер компьютерных игр. В один прекрасный день он оказывается напрочь стертым из памяти всех, кого он знал и любил. Кирилл узнает, что выбран для важной и таинственной миссии. Его предназначение — стать таможенником между параллельными мирами, коих во Вселенной десятки. Сможет ли Кирилл разгадать тайну этих таинственных миров и того, кто и зачем ими управляет? И действительно ли наша Земля — всего лишь воображаемый «черновик», параллельный мир, которого в Реальности не существует.



Страна: Россия
Студия: «Новые люди»
Продолжительность: 01:55:35
Перевод: Оригинал [Лицензия BD GER]
Субтитры: Нет

Файл
Кодек: XviD
Качество: HDRip
Видео: 688x288 (2.39:1), 24.000 fps, XviD build 73 ~765 kbps avg, 0.16 bit/pixel
Звук: 48 kHz, MPEG Layer 3, 2 ch, ~128.00 kbps avg
General
Complete name : Chernovik.2018.HDRip.ot.Portablius.avi
Format : AVI
Format/Info : Audio Video Interleave
File size : 747 MiB
Duration : 1 h 55 min
Overall bit rate : 903 kb/s
Writing application : VirtualDubMod 1.5.10.3 | www.virtualdub-fr.org || (build 2550/release)
Writing library : VirtualDubMod build 2550/release

Video
ID : 0
Format : MPEG-4 Visual
Format profile : Advanced Simple@L5
Format settings, BVOP : 1
Format settings, QPel : No
Format settings, GMC : No warppoints
Format settings, Matrix : Custom
Codec ID : XVID
Codec ID/Hint : XviD
Duration : 1 h 55 min
Bit rate : 766 kb/s
Width : 688 pixels
Height : 288 pixels
Display aspect ratio : 2.40:1
Frame rate : 24.000 FPS
Color space : YUV
Chroma subsampling : 4:2:0
Bit depth : 8 bits
Scan type : Progressive
Compression mode : Lossy
Bits/(Pixel*Frame) : 0.161
Stream size : 633 MiB (85%)
Writing library : XviD 73

Audio
ID : 1
Format : MPEG Audio
Format version : Version 1
Format profile : Layer 3
Codec ID : 55
Codec ID/Hint : MP3
Duration : 1 h 55 min
Bit rate mode : Constant
Bit rate : 128 kb/s
Channel(s) : 2 channels
Sampling rate : 48.0 kHz
Compression mode : Lossy
Stream size : 106 MiB (14%)
Alignment : Aligned on interleaves
Interleave, duration : 42 ms (1.00 video frame)
Interleave, preload duratio : 504 ms
Writing library : LAME3.99r
Encoding settings : -m s -V 4 -q 2 -lowpass 17 -b 128
Источник http://BlaTor.org

Трекер:  [ 20-Сен-2018 13:10 ]

  

Скачать .torrent

Размер .torrent файла 15 KB


Размер: 747 MB
Хэш (hash) релиза: 7d97d6d7f7ca0caf3d160a8c9d7151b074db2153
Подписка на обновления:

Торренты, похожие на Черновик скачать торрент

Форум Название Автор Размер S L Добавлен
Российские фильмы 2016-2018 (Новинки русского кино) ·%· Черновик (2018) HDRip от Scarabey | Лицензия Galfimbul 15533445121.45 GB 0 0 1537553666

21:14

21-Сен-18

Российские фильмы 2016-2018 (Новинки русского кино) ·%· Черновик (2018) BDRip-AVC от HELLYWOOD | GER Transfer | Лицензия Galfimbul 23368136832.18 GB 0 0 1537413019

06:10

20-Сен-18

Российские фильмы 2016-2018 (Новинки русского кино) ·%· Черновик (2018) BDRip 720p | GER Transfer | Лицензия Galfimbul 68343156606.36 GB 0 0 1537281241

17:34

18-Сен-18

Российские фильмы 2016-2018 (Новинки русского кино) ·%· Черновик (2018) Blu-ray 1080p | GER Transfer | Лицензия Galfimbul 4157394886338.72 GB 0 0 1537273894

15:31

18-Сен-18

Российские фильмы 2016-2018 (Новинки русского кино) ·%· Черновик (2018) BDRip 1080p от OlLanDGroup | GER Transfer | Лицензия Galfimbul 107087036139.97 GB 0 0 1537247416

08:10

18-Сен-18

Российские фильмы 2016-2018 (Новинки русского кино) ·%· Черновик (2018) BDRemux 1080p | Лицензия Galfimbul 3395815615731.63 GB 0 0 1537226445

02:20

18-Сен-18

Российские фильмы 2016-2018 (Новинки русского кино) ·%· Черновик (2018) WEB-DLRip от Generalfilm | КПК Galfimbul 460814592439 MB 0 0 1532802615

21:30

28-Июл-18

Российские фильмы до 2016 ·%· Черновик (Сергей Мокрицкий) [2018, фантастика, WEB-DLRip] Galfimbul 15623065601.46 GB 0 0 1532771655

12:54

28-Июл-18

Российские фильмы 2016-2018 (Новинки русского кино) ·%· Черновик (2018) WEB-DLRip-AVC от Files-x Galfimbul 15612109701.45 GB 0 0 1532758814

09:20

28-Июл-18

Российские фильмы до 2016 ·%· Черновик (Сергей Мокрицкий) [2018, Россия, Фантастика, WEB-DL 1080p] + Original Rus Galfimbul 45007229804.19 GB 0 0 1532750477

07:01

28-Июл-18

Российские фильмы 2016-2018 (Новинки русского кино) ·%· Черновик (2018) WEB-DLRip-AVC от GeneralFilm Galfimbul 15773380391.47 GB 0 0 1532744410

05:20

28-Июл-18

Российские фильмы 2016-2018 (Новинки русского кино) ·%· Черновик (2018) WEB-DLRip-AVC от ExKinoRay Galfimbul 13899565931.29 GB 0 0 1532741462

04:31

28-Июл-18

Российские фильмы 2016-2018 (Новинки русского кино) ·%· Черновик (2018) WEB-DLRip от GeneralFilm Galfimbul 15623065601.46 GB 0 0 1532721008

22:50

27-Июл-18

Российские фильмы 2016-2018 (Новинки русского кино) ·%· Черновик (2018) WEB-DLRip от GeneralFilm Galfimbul 782737408746 MB 0 0 1532712080

20:21

27-Июл-18

Российские фильмы 2016-2018 (Новинки русского кино) ·%· Черновик (2018) WEB-DL 1080p Galfimbul 45007228734.19 GB 0 0 1532703613

18:00

27-Июл-18

Еще никто не оставлял запись к записи скачать торрент Черновик . Будь первым!

!Обратная связь