Скачать через торрент Монстры на каникулах 3 Hotel Transylvania 3 Фильм бесплатно в хорошем качестве torrent

Скачивайте на UnionPeer.org фильмы через торрент без регистрации. Новинки кино в хорошем качестве через торрент. На UnionPeer.org можно скачать через торрент фильмы 2014 и 2015 годов. Самые новые фильмы.

Скачать торрент Монстры на каникулах 3 Hotel Transylvania 3 бесплатно через .torrent фильм мультфильм сериал

Статистика раздачи
Размер:  4.53 GB   |    Зарегистрирован:  2 месяца 18 дней   |    .torrent скачан:  202 раза   |   
Раздают:  1  
   
загрузка...
 
Автор Сообщение

Galfimbul

avatar Galfimbul


Монстры на каникулах 3: Море зовёт /Hotel Transylvania 3: Summer Vacation

Год выхода: 2018
Жанр: Мультфильм, фэнтези, комедия, семейный, полнометражный
Режиссер: Генндий Тартаковский
В ролях: Мэл Брукс, Адам Сэндлер, Селена Гомес, Энди Сэмберг, Кэтрин Хан, Фрэн Дрешер, Стив Бушеми, Дэвид Спейд, Тара Стронг, Кигэн-Майкл Ки



О фильме: На этот раз Дракула вместе со своими друзьями отправляется в круиз на шикарном лайнере. Развлечения там на любой вкус: от монстробаскетбола и экзотических экскурсий, до лунных ванн. Неожиданно Дракула влюбляется в капитана корабля — загадочную и прекрасную Эрику, и его дочка Мэвис понимает, что поездка может превратиться в кошмар: ведь Эрика хранит ужасный секрет, который ставит под угрозу существование всех монстров!

Страна: США
Студия: Columbia Pictures, Media Rights Capital (MRC), Sony Pictures Animation
Продолжительность: 01:37:23
Перевод: Дублированный | iTunes

Качество: BDRip 720p
Видео: MPEG-4 AVC, 1280x690, 4597 Kbit/s, 23.976 fps
Звук:
Аудио #01: 48 kHz, AC3, 5.1, 384 Kbps | iTunes | RUS |
Аудио #02: 48 kHz, AC3, 2.0, 160 Kbps | iTunes | UKR |
Аудио #03: 48 kHz, DTS, 5.1, 1510 Kbps | Оригинал | ENG |
Субтитры: Русские (forced, full), украинские (full), английские (full, SDH)

General
Unique ID : 175710752261988882775879778134642724430 (0x8430A8F1622141D59278242003850E4E)
Complete name : D:Video111Hotel.Transylvania.3.Summer.Vacation.2018.720p.BluRay.Rus.Ukr.Eng.TeamHD-HDS.mkv
Format : Matroska
Format version : Version 4 / Version 2
File size : 4.53 GiB
Duration : 1 h 37 min
Overall bit rate : 6 653 kb/s
Movie name : Hotel Transylvania 3 Summer Vacation (2018) TeamHD-селезень
Encoded date : UTC 2018-09-27 10:17:44
Writing application : mkvmerge v7.3.0 ('Nouages') 64bit built on Oct 22 2014 18:53:34
Writing library : libebml v1.3.0 + libmatroska v1.4.1

Video
ID : 1
Format : AVC
Format/Info : Advanced Video Codec
Format profile : High@L4.1
Format settings : CABAC / 9 Ref Frames
Format settings, CABAC : Yes
Format settings, ReFrames : 9 frames
Codec ID : V_MPEG4/ISO/AVC
Duration : 1 h 37 min
Bit rate : 4 597 kb/s
Width : 1 280 pixels
Height : 690 pixels
Display aspect ratio : 1.85:1
Frame rate mode : Constant
Frame rate : 23.976 (24000/1001) FPS
Color space : YUV
Chroma subsampling : 4:2:0
Bit depth : 8 bits
Scan type : Progressive
Bits/(Pixel*Frame) : 0.217
Stream size : 3.13 GiB (69%)
Title : NELchrist@HDSky
Writing library : x264 core 152 r2851+45 9658d1a 7mod [8-bit@all X86_64]
Encoding settings : cabac=1 / ref=9 / deblock=1:-3:-3 / analyse=0x3:0x113 / me=umh / subme=11 / psy=1 / fade_compensate=0.00 / psy_rd=1.00:0.05 / mixed_ref=1 / me_range=32 / chroma_me=1 / trellis=2 / 8x8dct=1 / cqm=0 / deadzone=21,11 / fast_pskip=0 / chroma_qp_offset=-2 / threads=64 / lookahead_threads=5 / sliced_threads=0 / nr=0 / decimate=1 / interlaced=0 / bluray_compat=0 / constrained_intra=0 / fgo=0 / bframes=8 / b_pyramid=2 / b_adapt=2 / b_bias=0 / direct=3 / weightb=1 / open_gop=0 / weightp=2 / keyint=250 / keyint_min=23 / scenecut=40 / intra_refresh=0 / rc=crf / mbtree=0 / crf=15.0000 / qcomp=0.60 / qpmin=0:0:0 / qpmax=69:69:69 / qpstep=4 / ip_ratio=1.40 / pb_ratio=1.30 / aq=4:0.90 / aq-sensitivity=10.00 / aq-factor=1.00:1.00:1.00 / aq2=0 / aq3=0
Language : English
Default : Yes
Forced : No

Audio #1
ID : 2
Format : AC-3
Format/Info : Audio Coding 3
Commercial name : Dolby Digital
Codec ID : A_AC3
Duration : 1 h 37 min
Bit rate mode : Constant
Bit rate : 384 kb/s
Channel(s) : 6 channels
Channel layout : L R C LFE Ls Rs
Sampling rate : 48.0 kHz
Frame rate : 31.250 FPS (1536 SPF)
Bit depth : 16 bits
Compression mode : Lossy
Stream size : 267 MiB (6%)
Title : iTunes
Language : Russian
Service kind : Complete Main
Default : Yes
Forced : Yes

Audio #2
ID : 3
Format : AC-3
Format/Info : Audio Coding 3
Commercial name : Dolby Digital
Codec ID : A_AC3
Duration : 1 h 37 min
Bit rate mode : Constant
Bit rate : 160 kb/s
Channel(s) : 2 channels
Channel layout : L R
Sampling rate : 48.0 kHz
Frame rate : 31.250 FPS (1536 SPF)
Bit depth : 16 bits
Compression mode : Lossy
Stream size : 111 MiB (2%)
Title : iTunes
Language : Ukrainian
Service kind : Complete Main
Default : No
Forced : No

Audio #3
ID : 4
Format : DTS
Format/Info : Digital Theater Systems
Codec ID : A_DTS
Duration : 1 h 37 min
Bit rate mode : Constant
Bit rate : 1 509 kb/s
Channel(s) : 6 channels
Channel layout : C L R Ls Rs LFE
Sampling rate : 48.0 kHz
Frame rate : 93.750 FPS (512 SPF)
Bit depth : 24 bits
Compression mode : Lossy
Stream size : 1.03 GiB (23%)
Title : Original
Language : English
Default : No
Forced : No

Text #1
ID : 5
Format : UTF-8
Codec ID : S_TEXT/UTF8
Codec ID/Info : UTF-8 Plain Text
Duration : 1 h 36 min
Bit rate : 0 b/s
Count of elements : 5
Stream size : 171 Bytes (0%)
Title : Forced
Language : Russian
Default : Yes
Forced : Yes

Text #2
ID : 6
Format : UTF-8
Codec ID : S_TEXT/UTF8
Codec ID/Info : UTF-8 Plain Text
Duration : 1 h 36 min
Bit rate : 76 b/s
Count of elements : 1118
Stream size : 54.4 KiB (0%)
Title : Full
Language : Russian
Default : No
Forced : No

Text #3
ID : 7
Format : UTF-8
Codec ID : S_TEXT/UTF8
Codec ID/Info : UTF-8 Plain Text
Duration : 1 h 36 min
Bit rate : 71 b/s
Count of elements : 1118
Stream size : 50.4 KiB (0%)
Title : Full
Language : Ukrainian
Default : No
Forced : No

Text #4
ID : 8
Format : UTF-8
Codec ID : S_TEXT/UTF8
Codec ID/Info : UTF-8 Plain Text
Duration : 1 h 26 min
Bit rate : 47 b/s
Count of elements : 1098
Stream size : 30.1 KiB (0%)
Title : Full
Language : English
Default : No
Forced : No

Menu
00:00:00.000 : en:00:00:00.000
00:04:28.935 : en:00:04:28.935
00:09:34.824 : en:00:09:34.824
00:16:02.044 : en:00:16:02.044
00:20:03.077 : en:00:20:03.077
00:24:34.932 : en:00:24:34.932
00:31:12.537 : en:00:31:12.537
00:36:49.207 : en:00:36:49.207
00:44:04.725 : en:00:44:04.725
00:49:57.703 : en:00:49:57.703
00:54:49.745 : en:00:54:49.745
01:00:34.881 : en:01:00:34.881
01:06:12.010 : en:01:06:12.010
01:10:32.270 : en:01:10:32.270
01:13:46.380 : en:01:13:46.380
01:24:56.550 : en:01:24:56.550
Источник http://BlaTor.org

Трекер:  [ 27-Сен-2018 13:40 ]

  

Скачать .torrent

Размер .torrent файла 91 KB


Размер: 4.53 GB
Хэш (hash) релиза: 76b5ad78b0d7c364b1c046c02ac2e6e67561f092
Подписка на обновления:

Торренты, похожие на Монстры на каникулах 3 Hotel Transylvania 3 скачать торрент

Форум Название Автор Размер S L Добавлен
Мультфильмы 2016-2018 (Новинки мультфильмов) ·%· Монстры на каникулах 3 / Hotel Transylvania 3 (2018) BDRip 1080p от TeamHD | iTunes Galfimbul 86177143708.03 GB 0 0 1538040026

12:20

27-Сен-18

Мультфильмы 2016-2018 (Новинки мультфильмов) ·%· Монстры на каникулах 3: Море зовёт / Hotel Transylvania 3: Summer Vacatio (2018) HDRip от Kaztorrents | КПК | Лицензия Galfimbul 391189535373 MB 0 0 1544013712

15:41

5-Дек-18

Мультфильмы 2016-2018 (Новинки мультфильмов) ·%· Монстры на каникулах 3: Море зовёт / Hotel Transylvania 3: Summer Vacation (2018) HDRip-AVC | Лицензия Galfimbul 778931740743 MB 0 0 1543183889

01:11

26-Ноя-18

Мультфильмы 2016-2018 (Новинки мультфильмов) ·%· Монстры на каникулах 3: Море зовёт / Hotel Transylvania 3: Summer Vacation (2018) BDRip-AVC от OlLanDGroup | Лицензия Galfimbul 15673309641.46 GB 0 0 1543174317

22:31

25-Ноя-18

Мультфильмы 2016-2018 (Новинки мультфильмов) ·%· Монстры на каникулах 3: Море зовёт / Hotel Transylvania 3: Summer Vacation (2018) UHD Blu-ray EUR 2160p | 4K | HDR | Лицензия Galfimbul 5608777580352.24 GB 0 0 1541960588

21:23

11-Ноя-18

Мультфильмы 2016-2018 (Новинки мультфильмов) ·%· Монстры на каникулах 3: Море зовёт / Hotel Transylvania 3: Summer Vacation (2018) BDRip 1080p от HELLYWOOD | Лицензия Galfimbul 83309141547.76 GB 0 0 1541916031

09:00

11-Ноя-18

Мультфильмы 2016-2018 (Новинки мультфильмов) ·%· Монстры на каникулах 3: Море зовёт / Hotel Transylvania 3: Summer Vacation (2018) BDRemux 1080p от селезень | Лицензия Galfimbul 2079410601919.37 GB 0 0 1541892775

02:32

11-Ноя-18

Мультфильмы 2016-2018 (Новинки мультфильмов) ·%· Монстры на каникулах 3: Море зовёт / Hotel Transylvania 3: Summer Vacation (2018) UHD BDRemux 2160p от селезень | 4K | HDR | Лицензия Galfimbul 4146456801838.62 GB 0 0 1541892766

02:32

11-Ноя-18

Мультфильмы 2016-2018 (Новинки мультфильмов) ·%· Монстры на каникулах 3: Море зовёт / Hotel Transylvania 3: Summer Vacation (2018) BDRip 720p от селезень | Лицензия Galfimbul 55268033885.15 GB 0 0 1541861529

17:52

10-Ноя-18

Мультфильмы 2016-2018 (Новинки мультфильмов) ·%· Монстры на каникулах 3: Море зовёт / Hotel Transylvania 3: Summer Vacation (2018) BDRip-HEVC 1080p | iTunes Galfimbul 39414946203.67 GB 0 0 1541658079

09:21

8-Ноя-18

Мультфильмы 2016-2018 (Новинки мультфильмов) ·%· Монстры на каникулах 3: Море зовёт / Hotel Transylvania 3: Summer Vacation (2018) UHD BDRemux 2160p от TeamHD | 4K | HDR | iTunes Galfimbul 4092655618238.12 GB 0 0 1538865011

01:30

7-Окт-18

Мультфильмы 2016-2018 (Новинки мультфильмов) ·%· Монстры на каникулах 3: Море зовёт / Hotel Transylvania 3: Summer Vacation (2018) HDRip от Kaztorrents | КПК | iTunes Galfimbul 388327974370 MB 0 0 1538113819

08:50

28-Сен-18

Мультфильмы 2016-2018 (Новинки мультфильмов) ·%· Монстры на каникулах 3: Море зовёт / Hotel Transylvania 3: Summer Vacation (2018) BDRip от ExKinoRay | iTunes Galfimbul 15220080861.42 GB 0 0 1538083219

00:20

28-Сен-18

Мультфильмы 2016-2018 (Новинки мультфильмов) ·%· Монстры на каникулах 3: Море зовёт / Hotel Transylvania 3: Summer Vacation (2018) BDRip от MegaPeer | iTunes Galfimbul 783843030748 MB 0 0 1538063502

18:51

27-Сен-18

Мультфильмы 2016-2018 (Новинки мультфильмов) ·%· Монстры на каникулах 3: Море зовёт / Hotel Transylvania 3: Summer Vacation (2018) BDRemux 1080p | iTunes Galfimbul 2025326808018.86 GB 0 0 1538035824

11:10

27-Сен-18

Мультфильмы 2016-2018 (Новинки мультфильмов) ·%· Монстры на каникулах 3: Море зовёт / Hotel Transylvania 3: Summer Vacation (2018) WEB-DLRip-AVC от Generalfilm | iTunes Galfimbul 13521217511.26 GB 0 0 1537948818

11:00

26-Сен-18

Мультфильмы 2016-2018 (Новинки мультфильмов) ·%· Монстры на каникулах 3: Море зовёт / Hotel Transylvania 3: Summer Vacation (2018) WEB-DLRip-AVC от ExKinoRay | iTunes Galfimbul 20562707791.92 GB 0 0 1537849821

07:30

25-Сен-18

Еще никто не оставлял запись к записи скачать торрент Монстры на каникулах 3 Hotel Transylvania 3 . Будь первым!

!Обратная связь