Скачать через торрент Вилли и крутые тачки Wheely Фильм бесплатно в хорошем качестве torrent

Скачивайте на UnionPeer.org фильмы через торрент без регистрации. Новинки кино в хорошем качестве через торрент. На UnionPeer.org можно скачать через торрент фильмы 2014 и 2015 годов. Самые новые фильмы.

Скачать торрент Вилли и крутые тачки Wheely бесплатно через .torrent фильм мультфильм сериал

Статистика раздачи
Размер:  2.71 GB   |    Зарегистрирован:  2 месяца 16 дней   |    .torrent скачан:  189 раз   |   
Раздают:  1  
   
загрузка...
 
Автор Сообщение

Galfimbul

avatar Galfimbul


Вилли и крутые тачки /Wheely

Год выхода: 2018
Жанр: Укажите жанры, разделяя запятыми
Режиссер: Юсри Крю
В ролях: Оги Бэнкс, Гэвин Яп

О фильме:
Вилли — трижды чемпион по уличным гонкам в Гаскет-Сити, готовится к главному соревнованию в своей жизни. Весь мир у его колёс! Но в решающем заезде он не справился с управлением и упал в глубокую реку. Вилли приходиться стать обычным такси и лишь иногда соревноваться с обычными городскими машинами. Но после неожиданного столкновения с прекрасной итальянской машинкой Беллой, он начинает понимать, что помимо жажды скорости в жизни есть более важные вещи…



Страна: Малайзия
Студия: Студия-изготовитель, если известна
Продолжительность: 01:29:59
Перевод: Дублированный [Официальный звук]

Файл
Качество: WEB-DLRip 720p
Формат: MKV
Видео кодек: AVC
Аудио кодек: AC3
Видео: 1280x672 (1.905:1), 24.000 fps, AVC, 4 000 Kbps
Звук: AC3, 320 Kbps, 48.0 KHz, 2 ch [Официальный звук]
Субтитры: Нет

<span style="color:brown;">[u]
General
Unique ID : 327073633470710750984680667258853518805 (0xF61017292D96F95EEA3EC9E25553EDD5)
Complete name : Wheely.2018.web-dlrip.720p.Tapochek.D.mkv
Format : Matroska
Format version : Version 4 / Version 2
File size : 2.71 GiB
Duration : 1h 29mn
Overall bit rate : 4 317 Kbps
Movie name : Tapochek
Writing application : XviD4PSP 7.0.457 DAILY
Writing library : Lavf57.71.100

Video
ID : 1
Format : AVC
Format/Info : Advanced Video Codec
Format profile : High 4:2:2@L4.1
Format settings, CABAC : Yes
Format settings, ReFrames : 4 frames
Codec ID : V_MPEG4/ISO/AVC
Duration : 1h 29mn
Bit rate : 4 000 Kbps
Width : 1 280 pixels
Height : 672 pixels
Display aspect ratio : 1.905
Frame rate mode : Constant
Frame rate : 24.000 fps
Color space : YUV
Chroma subsampling : 4:2:2
Bit depth : 8 bits
Scan type : Progressive
Bits/(Pixel*Frame) : 0.194
Stream size : 2.46 GiB (91%)
Title : Tapochek
Writing library : x264 core 155 r2901M 7d0ff22
Encoding settings : cabac=1 / ref=4 / deblock=1:0:0 / analyse=0x3:0x113 / me=umh / subme=9 / psy=1 / psy_rd=1.00:0.00 / mixed_ref=1 / me_range=16 / chroma_me=1 / trellis=2 / 8x8dct=1 / cqm=0 / deadzone=21,11 / fast_pskip=1 / chroma_qp_offset=-4 / threads=4 / lookahead_threads=3 / sliced_threads=0 / nr=0 / decimate=1 / interlaced=0 / bluray_compat=0 / constrained_intra=0 / bframes=3 / b_pyramid=2 / b_adapt=2 / b_bias=0 / direct=3 / weightb=1 / open_gop=0 / weightp=2 / keyint=250 / keyint_min=25 / scenecut=40 / intra_refresh=0 / rc_lookahead=50 / rc=abr / mbtree=1 / bitrate=4000 / ratetol=1.0 / qcomp=0.60 / qpmin=0 / qpmax=69 / qpstep=4 / ip_ratio=1.40 / aq=1:1.00
Language : Russian
Default : Yes
Forced : No
Color primaries : BT.709
Transfer characteristics : BT.709
Matrix coefficients : BT.709

Audio
ID : 2
Format : AC-3
Format/Info : Audio Coding 3
Mode extension : CM (complete main)
Format settings, Endianness : Big
Codec ID : A_AC3
Duration : 1h 29mn
Bit rate mode : Constant
Bit rate : 320 Kbps
Channel(s) : 2 channels
Channel positions : Front: L R
Sampling rate : 48.0 KHz
Bit depth : 16 bits
Compression mode : Lossy
Stream size : 206 MiB (7%)
Title : Официальный
Language : Russian
Default : Yes
Forced : No
Релиз от: Tapochek
Источник http://BlaTor.org

Трекер:  [ 29-Сен-2018 11:20 ]

  

Скачать .torrent

Размер .torrent файла 54 KB


Размер: 2.71 GB
Хэш (hash) релиза: 8424060b6d8c18b2e3c8ccee3aa7eb888b16b1e0
Подписка на обновления:

Еще никто не оставлял запись к записи скачать торрент Вилли и крутые тачки Wheely . Будь первым!

!Обратная связь