Скачать через торрент Диггеры Фильм бесплатно в хорошем качестве torrent

Скачивайте на UnionPeer.org фильмы через торрент без регистрации. Новинки кино в хорошем качестве через торрент. На UnionPeer.org можно скачать через торрент фильмы 2014 и 2015 годов. Самые новые фильмы.

Скачать торрент Диггеры бесплатно через .torrent фильм мультфильм сериал

Статистика раздачи
Размер:  1.89 GB   |    Зарегистрирован:  21 день   |    .torrent скачан:  173 раза   |   
Раздают:  1  
   
загрузка...
 
Автор Сообщение

Galfimbul

avatar Galfimbul


Диггеры



[b]Год выпуска:
2016
Жанр: Ужасы
Выпущено: Россия, Горад
Режиссер: Тихон Корнев
В ролях: Роман Евдокимов, Анна Васильева, Алёна Савастова, Владимир Кузнецов, Андрей Лёвин, Мария Щекатурова, Евгений Коряковский, Дин Фан, Кирилл Кобзарев, Валерия Шкирандо

О фильме: Ночное метро. Несколько минут до закрытия. Последний поезд на полном ходу пролетает мимо конечной станции, увозя в темноту туннеля ничего не понимающих пассажиров. Официальные власти засекречивают информацию о бесследно исчезнувших людях. Через несколько дней, на поиски пропавших отправляются их друзья. Им предстоит вспомнить все жуткие городские легенды, которыми окутано московское подземелье…. И узнать, что реальность может быть намного страшнее…




Формат: MKV
Качество: BDRip-AVC [BDRemux ITA]
Видео: MPEG-4 AVC, 1024x428 (2.40:1), 23.976 fps, 2954 Kbps, 0.281 bit/pixel
Аудио: 48 kHz, AC3, 5.1, 448 Kbps
Продолжительность: 01:19:28
Язык: Русский

Сохранены оригинальные чаптеры как на исходном BDRemux.
x264 [info]: frame I:732 Avg QP:12.99 size: 79846
x264 [info]: frame P:23369 Avg QP:16.00 size: 30655
x264 [info]: frame B:90331 Avg QP:17.88 size: 10896
x264 [info]: consecutive B-frames: 2.5% 2.5% 5.5% 12.3% 15.8% 36.4% 11.9% 6.9% 2.0% 1.1% 0.9% 1.0% 1.3%
General
Unique ID : 191578725347185008530164771894948947764 (0x9020B86B2CECBEAF9701FD7CEE6E6734)
Complete name : D:Diggeri.2016.BDRip.AVC.ExKinoRay.mkv
Format : Matroska
Format version : Version 2
File size : 1.89 GiB
Duration : 1 h 19 min
Overall bit rate : 3 401 kb/s
Movie name : Diggeri 2016 from ExKinoRay
Encoded date : UTC 2018-10-01 05:03:35
Writing application : mkvmerge v5.6.0 ('Kenya Kane') built on May 27 2012 16:44:04
Writing library : libebml v1.2.3 + libmatroska v1.3.0

Video
ID : 1
Format : AVC
Format/Info : Advanced Video Codec
Format profile : High@L4.1
Format settings, CABAC : Yes
Format settings, ReFrames : 12 frames
Codec ID : V_MPEG4/ISO/AVC
Duration : 1 h 19 min
Bit rate : 2 954 kb/s
Width : 1 024 pixels
Height : 428 pixels
Display aspect ratio : 2.40:1
Frame rate mode : Constant
Frame rate : 24.000 FPS
Color space : YUV
Chroma subsampling : 4:2:0
Bit depth : 8 bits
Scan type : Progressive
Bits/(Pixel*Frame) : 0.281
Stream size : 1.60 GiB (85%)
Title : Enigma
Writing library : x264 core 152 r2851 ba24899
Encoding settings : cabac=1 / ref=12 / deblock=1:-2:-2 / analyse=0x3:0x113 / me=umh / subme=10 / psy=1 / psy_rd=0.95:0.05 / mixed_ref=1 / me_range=32 / chroma_me=1 / trellis=2 / 8x8dct=1 / cqm=0 / deadzone=21,11 / fast_pskip=0 / chroma_qp_offset=-3 / threads=12 / lookahead_threads=3 / sliced_threads=0 / nr=0 / decimate=0 / interlaced=0 / bluray_compat=0 / constrained_intra=0 / bframes=12 / b_pyramid=2 / b_adapt=2 / b_bias=0 / direct=3 / weightb=1 / open_gop=0 / weightp=2 / keyint=240 / keyint_min=23 / scenecut=40 / intra_refresh=0 / rc=2pass / mbtree=0 / bitrate=2954 / ratetol=1.0 / qcomp=0.65 / qpmin=0 / qpmax=51 / qpstep=4 / cplxblur=20.0 / qblur=0.5 / ip_ratio=1.40 / pb_ratio=1.30 / aq=3:0.80
Language : English
Default : Yes
Forced : No
Color range : Limited
Color primaries : BT.709
Transfer characteristics : BT.709
Matrix coefficients : BT.709

Audio
ID : 2
Format : AC-3
Format/Info : Audio Coding 3
Mode extension : CM (complete main)
Format settings, Endianness : Big
Codec ID : A_AC3
Duration : 1 h 19 min
Bit rate mode : Constant
Bit rate : 448 kb/s
Channel(s) : 6 channels
Channel positions : Front: L C R, Side: L R, LFE
Sampling rate : 48.0 kHz
Frame rate : 31.250 FPS (1536 spf)
Compression mode : Lossy
Stream size : 255 MiB (13%)
Title : Lisence
Language : Russian
Default : Yes
Forced : No

Menu
00:00:00.000 : en:Chapter 1
00:08:33.291 : en:Chapter 2
00:21:00.375 : en:Chapter 3
00:32:05.458 : en:Chapter 4
00:42:01.083 : en:Chapter 5
00:54:45.750 : en:Chapter 6
01:04:45.791 : en:Chapter 7
01:09:35.833 : en:Chapter 8
01:18:03.875 : en:Chapter 9


Автор релиза:
Источник http://BlaTor.org

Трекер:  [ 01-Окт-2018 08:50 ]

  

Скачать .torrent

Размер .torrent файла 19 KB


Размер: 1.89 GB
Хэш (hash) релиза: 01ea97d6e742d8018f2794a44eeb99266319aad3
Подписка на обновления:

Торренты, похожие на Диггеры скачать торрент

Форум Название Автор Размер S L Добавлен
Российские фильмы до 2016 ·· Диггеры (Тихон Корнев) [2016, ужасы, WEB-DLRip] Galfimbul 778121216742 MB 0 0 1474408275

00:51

21-Сен-16

Российские фильмы до 2016 ·· Диггеры (Тихон Корнев) [2016, Россия, ужасы, WEB-DL 1080p] Galfimbul 29564083282.75 GB 0 0 1474394600

21:03

20-Сен-16

Российские фильмы 2016-2018 (Новинки русского кино) ·· Диггеры (Тихон Корнев) [2016, ужасы, WEB-DL 1080p] iTunes Galfimbul 29564083282.75 GB 0 0 1474278359

12:45

19-Сен-16

Российские фильмы 2016-2018 (Новинки русского кино) ·· Диггеры (Тихон Корнев) [2016, ужасы, WEB-DLRip 720p] iTunes Galfimbul 26846548882.5 GB 0 0 1474278352

12:45

19-Сен-16

Российские фильмы 2016-2018 (Новинки русского кино) ·· Диггеры (Тихон Корнев) [2016, ужасы, WEB-DLRip] iTunes Galfimbul 14648299521.36 GB 0 0 1474278346

12:45

19-Сен-16

Российские фильмы 2016-2018 (Новинки русского кино) ·· Диггеры (Тихон Корнев) [2016, ужасы, WEBRip] Galfimbul 14674227201.37 GB 0 0 1473765419

14:16

13-Сен-16

Российские фильмы 2016-2018 (Новинки русского кино) ·· Диггеры (Тихон Корнев) [2016, ужасы, WEB-DL 720p] Galfimbul 26852352362.5 GB 0 0 1473626923

23:48

11-Сен-16

Российские фильмы 2016-2018 (Новинки русского кино) ·· Диггеры (Тихон Корнев) [2016, ужасы, TS] Galfimbul 14679818241.37 GB 0 0 1471156968

09:42

14-Авг-16

Еще никто не оставлял запись к записи скачать торрент Диггеры . Будь первым!

!Обратная связь