Скачать через торрент Сокровища Ермака Фильм бесплатно в хорошем качестве torrent

Скачивайте на UnionPeer.org фильмы через торрент без регистрации. Новинки кино в хорошем качестве через торрент. На UnionPeer.org можно скачать через торрент фильмы 2014 и 2015 годов. Самые новые фильмы.

Скачать торрент Сокровища Ермака бесплатно через .torrent фильм мультфильм сериал

Статистика раздачи
Размер:  746 MB   |    Зарегистрирован:  15 дней   |    .torrent скачан:  165 раз   |   
Раздают:  1  
   
загрузка...
 
Автор Сообщение

Galfimbul

avatar Galfimbul


Сокровища Ермака



[b]Год выпуска:
2018
Жанр: Семейный, приключения
Режиссер: Олег Денисов
В ролях: Георгий Кальдин, Мария Полиенко, Владимир Грамматиков, Артем Лещик, Александр Кононец, Ирина Горячева, Полина Воробьева, Роман Грибков, Сергей Гамов

О фильме:
После того, как одиннадцатилетний пермский школьник Костя, самозабвенно влюбленный в археологию, находит на учебных раскопках древний ларец Строгановых с картой, начинается настоящая охота за легендарным кладом Ермака. Карта оказывается моментально похищенной бандитами. Но у Кости остаются фотография карты и ключ, о существовании которого бандиты уже догадались. Мальчик отправляется на поиски сокровищ, предварительно убедив родителей, что всего лишь едет в деревню к бабушке. Когда-то из-за этого клада погиб дед мальчика, известный археолог, и Костя решительно настроен осуществить его мечту. Неожиданно для Кости, вместе с ним увязывается Маша, девочка-сорванец, сбежавшая из дома. Вдвоем дети умудряются скрываться и от бандитов, и от полиции, проявляя чудеса изобретательности и
медленно, но верно, шаг за шагом, приближаясь к кладу.


Страна: Россия
Студия: ТПО Рок
Продолжительность: 01:28:13
Перевод: Не требуется
Субтитры: нет

Файл
Формат: avi
Качество: WEB-DLRip
Видео: XviD build 73, 688x368 (1.85:1), 25.000 fps, ~ 1044 Kbps (~ 0.165 bit/pixel)
Звук: 48.0 kHz, MP3, 2/0 ch, 128 kbps
General
Complete name : D:RazdachiSokrovisha.Ermaka.2018.XviD.745mb.WEB-DLRip.GeneralFilm.avi
Format : AVI
Format/Info : Audio Video Interleave
File size : 746 MiB
Duration : 1 h 28 min
Overall bit rate : 1 182 kb/s
Writing application : VirtualDubMod 1.5.10.3 | www.virtualdub-fr.org || (build 2550/release)
Writing library : VirtualDubMod build 2550/release

Video
ID : 0
Format : MPEG-4 Visual
Format profile : Advanced Simple@L5
Format settings, BVOP : 1
Format settings, QPel : No
Format settings, GMC : No warppoints
Format settings, Matrix : Custom
Codec ID : XVID
Codec ID/Hint : XviD
Duration : 1 h 28 min
Bit rate : 1 044 kb/s
Width : 688 pixels
Height : 368 pixels
Display aspect ratio : 1.85:1
Frame rate : 25.000 FPS
Color space : YUV
Chroma subsampling : 4:2:0
Bit depth : 8 bits
Scan type : Progressive
Compression mode : Lossy
Bits/(Pixel*Frame) : 0.165
Stream size : 659 MiB (88%)
Writing library : XviD 73

Audio
ID : 1
Format : MPEG Audio
Format version : Version 1
Format profile : Layer 3
Codec ID : 55
Codec ID/Hint : MP3
Duration : 1 h 28 min
Bit rate mode : Constant
Bit rate : 128 kb/s
Channel(s) : 2 channels
Sampling rate : 48.0 kHz
Compression mode : Lossy
Stream size : 80.8 MiB (11%)
Alignment : Aligned on interleaves
Interleave, duration : 40 ms (1.00 video frame)
Interleave, preload duratio : 504 ms
Writing library : LAME3.99r
Encoding settings : -m s -V 4 -q 2 -lowpass 17 -b 128
Релиз от:
Источник http://BlaTor.org

Трекер:  [ 05-Окт-2018 07:50 ]

  

Скачать .torrent

Размер .torrent файла 15 KB


Размер: 746 MB
Хэш (hash) релиза: 3d67ec96cdf438a790cc374e3b989e767a4318ef
Подписка на обновления:

Еще никто не оставлял запись к записи скачать торрент Сокровища Ермака . Будь первым!

!Обратная связь