Скачать через торрент В ад и обратно Hell and Back Фильм бесплатно в хорошем качестве torrent

Скачивайте на UnionPeer.org фильмы через торрент без регистрации. Новинки кино в хорошем качестве через торрент. На UnionPeer.org можно скачать через торрент фильмы 2014 и 2015 годов. Самые новые фильмы.

Скачать торрент В ад и обратно Hell and Back бесплатно через .torrent фильм мультфильм сериал

Статистика раздачи
Размер:  745 MB   |    Зарегистрирован:  13 дней   |    .torrent скачан:  110 раз   |   
Раздают:  1  
   
загрузка...
 
Автор Сообщение

Galfimbul

avatar Galfimbul


В ад и обратно /Hell and Back

Год выхода: 2015
Жанр: Мультфильм, комедия, приключения
Режиссеры: Том Джинас, Росс Шуман
В ролях: Ник Свардсон, Мила Кунис, Боб Оденкёрк, ТиДжей Миллер, Роб Риггл, Сьюзен Сарандон, Дэнни МакБрайд, Мария Бэмфорд, Лэнс Басс

О фильме: История о двух закадычных друзьях, которые должны спасти третьего участника их сплоченного коллектива после того, как тот по ошибке попал прямиком в Ад...



Страна: США
Студия: ShadowMachine Films
Продолжительность: 01:25:57
Перевод: Любительский (двухголосый, закадровый) | SinisterSound
Субтитры: Нет

ПРИСУТСТВУЕТ НЕНОРМАТИВНАЯ ЛЕКСИКА!

Файл
Кодек: XviD
Качество: WEB-DLRip
Видео: 656x368 (1.78:1), 23.976 fps, XviD build 73 ~1073 kbps avg, 0.19 bit/pixel
Звук: 48 kHz, MPEG Layer 3, 2 ch, ~128.00 kbps avg
General
Complete name : Hell.and.Back.2015.WEB-DLRip.ot.Portablius.avi
Format : AVI
Format/Info : Audio Video Interleave
File size : 745 MiB
Duration : 1 h 25 min
Overall bit rate : 1 211 kb/s
Writing application : VirtualDubMod 1.5.10.3 | www.virtualdub-fr.org || (build 2550/release)
Writing library : VirtualDubMod build 2550/release

Video
ID : 0
Format : MPEG-4 Visual
Format profile : Advanced Simple@L5
Format settings, BVOP : 1
Format settings, QPel : No
Format settings, GMC : No warppoints
Format settings, Matrix : Custom
Codec ID : XVID
Codec ID/Hint : XviD
Duration : 1 h 25 min
Bit rate : 1 074 kb/s
Width : 656 pixels
Height : 368 pixels
Display aspect ratio : 16:9
Frame rate : 23.976 (24000/1001) FPS
Color space : YUV
Chroma subsampling : 4:2:0
Bit depth : 8 bits
Scan type : Progressive
Compression mode : Lossy
Bits/(Pixel*Frame) : 0.186
Stream size : 660 MiB (89%)
Writing library : XviD 73

Audio
ID : 1
Format : MPEG Audio
Format version : Version 1
Format profile : Layer 3
Codec ID : 55
Codec ID/Hint : MP3
Duration : 1 h 25 min
Bit rate mode : Constant
Bit rate : 128 kb/s
Channel(s) : 2 channels
Sampling rate : 48.0 kHz
Compression mode : Lossy
Stream size : 78.7 MiB (11%)
Alignment : Aligned on interleaves
Interleave, duration : 42 ms (1.00 video frame)
Interleave, preload duratio : 504 ms
Writing library : LAME3.99r
Encoding settings : -m s -V 4 -q 2 -lowpass 17 -b 128
Источник http://BlaTor.org

Трекер:  [ 05-Окт-2018 11:10 ]

  

Скачать .torrent

Размер .torrent файла 15 KB


Размер: 745 MB
Хэш (hash) релиза: 8cad76c283d9ee8f7abaf657e42b68426213f21a
Подписка на обновления:

Торренты, похожие на В ад и обратно Hell and Back скачать торрент

Форум Название Автор Размер S L Добавлен
Мультфильмы до 2016 ·· В ад и обратно / Hell and Back (Том Джинас, Росс Шуман) [2015, США, мультфильм, комедия, приключения, HDRip] DVO + Sub Rus + Original Eng Galfimbul 1046102538998 MB 0 0 1469713509

16:45

28-Июл-16

Мультфильмы до 2016 ·· В ад и обратно / Hell and Back (Том Джинас / Tom Gianas, Росс Шуман / Ross Shuman) [2015, США, мультфильм, комедия, приключения, WEB-DLRip] DVO Galfimbul 780093440744 MB 0 0 1461229651

12:07

21-Апр-16

Мультфильмы до 2016 ·· В ад и обратно / Hell and Back (Том Джинас / Tom Gianas, Росс Шуман / Ross Shuman) [2015, США, мультфильм, комедия, приключения, WEB-DLRip] DVO Galfimbul 14682501121.37 GB 0 0 1460366678

12:24

11-Апр-16

Мультфильмы до 2016 ·· В ад и обратно / Hell and Back (Том Джинас / Tom Gianas, Росс Шуман / Ross Shuman) [2015, США, мультфильм, комедия, приключения, WEB-DL 720p] DVO + Original (Eng) + Sub (eng) Galfimbul 29417490022.74 GB 0 0 1457947464

12:24

14-Мар-16

Документальные фильмы и телепередачи ·· В ад и обратно / Hell and Back Again (Данфунг Деннис / Danfung Dennis) [2011, документальный, боевик, военный, история, BDRemux 1080p] Galfimbul 2280084855121.23 GB 0 0 1338104700

10:45

27-Май-12

Документальные фильмы и телепередачи ·· В ад и обратно / Hell and Back Again (Данфунг Деннис) [2011г., Документальный, история, боевик, военный, HDRip] Galfimbul 14652375041.36 GB 0 0 1327227857

13:24

22-Янв-12

Документальные фильмы и телепередачи ·· В ад и обратно / Hell and Back Again (Данфунг Деннис / Danfung Dennis) [2011, документальный, военный, история, SATRip] DVO студия Лексикон L 738809856705 MB 0 0 1322496057

19:00

28-Ноя-11

Еще никто не оставлял запись к записи скачать торрент В ад и обратно Hell and Back . Будь первым!

!Обратная связь