Скачать через торрент Суперособняк SuperMansion Фильм бесплатно в хорошем качестве torrent

Скачивайте на UnionPeer.org фильмы через торрент без регистрации. Новинки кино в хорошем качестве через торрент. На UnionPeer.org можно скачать через торрент фильмы 2014 и 2015 годов. Самые новые фильмы.

Скачать торрент Суперособняк SuperMansion бесплатно через .torrent фильм мультфильм сериал

Статистика раздачи
Размер:  7.32 GB   |    Зарегистрирован:  13 дней   |    .torrent скачан:  70 раз   |   
Раздают:  1  
   
загрузка...
 
Автор Сообщение

Galfimbul

avatar Galfimbul


Суперособняк / SuperMansion

Год выпуска: 2017
Жанр: Мультсериал, комедия, фантастика, супергерой, семейный
Режиссер: Зеб Уэллс, Алекс Камер
В ролях: Брайан Крэнстон, Хайди Гарднер, Кигэн-Майкл Ки, Зеб Уэллс, Джиллиан Белл, Сет Грин, Мэттью Сенрейч, Джон Бернтал, Дональд Фэйзон

О фильме:
Сериал о великовозрастных супергероях — Титаниуме Рексе и его команде, известной как «Лига Свободы», которые стараются быть актуальными в современном мире.

Страна: США
Студия: Moon Shot Entertainment, Stoopid Buddy Stoodios
Продолжительность: 13 x ~ 00:24:00
Перевод: Любительский многоголосый | ColdFilm

Файл
Кодек: x264 (AVC)
Качество: WEBRip 720p
Видео: ~ 4000 Кбит/с, 1280x720, 23.976 fps
Звук: Русский / AAC / 2.0 / 128 kbs

General
Unique ID : 274972768961627455831453793207350106902 (0xCEDDD436F279278D794214DBD4929B16)
Complete name : SuperMansion.S03E01.720p.ColdFilm.mkv
Format : Matroska
Format version : Version 2
File size : 706 MiB
Duration : 23 min 45 s
Overall bit rate : 4 158 kb/s
Writing application : Lavf54.63.104
Writing library : Lavf54.63.104

Video
ID : 1
Format : AVC
Format/Info : Advanced Video Codec
Format profile : Main@L3.1
Format settings : CABAC / 1 Ref Frames
Format settings, CABAC : Yes
Format settings, ReFrames : 1 frame
Codec ID : V_MPEG4/ISO/AVC
Duration : 23 min 45 s
Bit rate : 4 000 kb/s
Width : 1 280 pixels
Height : 720 pixels
Display aspect ratio : 16:9
Frame rate mode : Constant
Frame rate : 23.976 (24000/1001) FPS
Color space : YUV
Chroma subsampling : 4:2:0
Bit depth : 8 bits
Scan type : Progressive
Bits/(Pixel*Frame) : 0.181
Stream size : 660 MiB (93%)
Writing library : x264 core 129
Default : Yes
Forced : No

Audio
ID : 2
Format : AC-3
Format/Info : Audio Coding 3
Codec ID : A_AC3
Duration : 23 min 45 s
Bit rate mode : Constant
Bit rate : 192 kb/s
Channel(s) : 2 channels
Channel positions : Front: L R
Sampling rate : 48.0 kHz
Frame rate : 31.250 FPS (1536 SPF)
Bit depth : 16 bits
Compression mode : Lossy
Stream size : 32.6 MiB (5%)
Service kind : Complete Main
Default : Yes
Forced : No
Релиз от:
Источник http://BlaTor.org

Трекер:  [ 05-Окт-2018 11:10 ]

  

Скачать .torrent

Размер .torrent файла 38 KB


Размер: 7.32 GB
Хэш (hash) релиза: f9cf4c083e334a0a05f0b970ded10b1340018a49
Подписка на обновления:

Торренты, похожие на Суперособняк SuperMansion скачать торрент

Форум Название Автор Размер S L Добавлен
Мультфильмы 2016-2018 (Новинки мультфильмов) ·%· Суперособняк / SuperMansion [S03] (2018) WEBRip | ColdFilm Galfimbul 36175416743.37 GB 0 0 1538727155

11:12

5-Окт-18

Мультсериалы ·· СуперОсобняк / SuperMansion / Сезон: 1 / Серии: 1-13 из 13 (Зеб Уэллс, Alex Kamer) [2015, США, комедия, WEB-DL 1080p] VO (RedRussian1337) Galfimbul 1350142632512.57 GB 0 0 1481728282

18:11

14-Дек-16

Еще никто не оставлял запись к записи скачать торрент Суперособняк SuperMansion . Будь первым!

!Обратная связь