Скачать через торрент Оставленные The Outer Wild Фильм бесплатно в хорошем качестве torrent

Скачивайте на UnionPeer.org фильмы через торрент без регистрации. Новинки кино в хорошем качестве через торрент. На UnionPeer.org можно скачать через торрент фильмы 2014 и 2015 годов. Самые новые фильмы.

Скачать торрент Оставленные The Outer Wild бесплатно через .torrent фильм мультфильм сериал

Статистика раздачи
Размер:  2.63 GB   |    Зарегистрирован:  2 месяца 3 дня   |    .torrent скачан:  147 раз   |   
Раздают:  1  
   
загрузка...
 
Автор Сообщение

Galfimbul

avatar Galfimbul


Оставленные /The Outer Wild

Год выхода: 2018
Жанр: Ужасы, фантастика, фэнтези, триллер, приключения
Режиссер: Филип Хидель
В ролях: Лорен МакНайт, Кристиан Оливер, Джефф Парис, Тори Таранова, Джимми Жан-Луи, Зак Рериг, Дин Степлтон, Кари Уайт, Джесси Дж. Кларксон и другие
О фильме:
После катастрофы человечество почти вымирает: мужчины превращаются в новый вид зверей, а женщины растворяются в воздухе и попадают на красную звезду. Для оставшихся выживших строят колонии, и Лора решает убежать из такой колонии и пойти искать свою сестру, которая исчезла. В дороге Лору ловит охотник за головами изгоев, но жалеет ее и решает помочь ей найти свою сестру.



Страна: США, Chabo Films, Cardiac Pictures
Продолжительность: 01:25:00
Перевод: Любительский (двухголосый закадровый) | HiWay Grope

Файл
Кодек: MPEG-4 AVC/x.264
Качество: WEBRip 720p
Видео: 1280x528, 25.000 fps, ~3950 kbps, 0.234 bit/pixel
Звук:
Аудио rus: AC3, 48 kHz, 6 ch, 384 Kbps
Субтитры: отсутствуют

Реклама: присутствует

Семпл
General
Unique ID : 193539722548120440860571278446047267058 (0x919A650B9BC949D99D9D2FDFDB6C08F2)
Complete name : D:The.Outer.Wild.2018.720p.WERip.HiWayGropeThe.Outer.Wild.2018.720p.WERip.HiWayGrope.mkv
Format : Matroska
Format version : Version 2
File size : 2.63 GiB
Duration : 1 h 25 min
Overall bit rate : 4 422 kb/s
Encoded date : UTC 2018-10-10 16:39:02
Writing application : mkvmerge v3.3.0 ('Language') built on Mar 24 2010 14:59:24
Writing library : libebml v0.8.0 + libmatroska v0.9.0

Video
ID : 1
Format : AVC
Format/Info : Advanced Video Codec
Format profile : Main@L3.1
Format settings : CABAC / 3 Ref Frames
Format settings, CABAC : Yes
Format settings, RefFrames : 3 frames
Codec ID : V_MPEG4/ISO/AVC
Duration : 1 h 25 min
Bit rate : 3 950 kb/s
Width : 1 280 pixels
Height : 528 pixels
Display aspect ratio : 2.40:1
Frame rate mode : Constant
Frame rate : 25.000 FPS
Standard : PAL
Color space : YUV
Chroma subsampling : 4:2:0
Bit depth : 8 bits
Scan type : Progressive
Bits/(Pixel*Frame) : 0.234
Stream size : 2.35 GiB (89%)
Language : English
Default : Yes
Forced : No
Color range : Limited
Color primaries : BT.601 NTSC
Transfer characteristics : BT.601
Matrix coefficients : BT.601

Audio
ID : 2
Format : AC-3
Format/Info : Audio Coding 3
Codec ID : A_AC3
Duration : 1 h 25 min
Bit rate mode : Constant
Bit rate : 384 kb/s
Channel(s) : 6 channels
Channel positions : Front: L C R, Side: L R, LFE
Sampling rate : 48.0 kHz
Frame rate : 31.250 FPS (1536 SPF)
Bit depth : 16 bits
Compression mode : Lossy
Stream size : 233 MiB (9%)
Service kind : Complete Main
Default : Yes
Forced : No
Релиз от: HiWay Grope
Источник http://BlaTor.org

Трекер:  [ 11-Окт-2018 13:30 ]

  

Скачать .torrent

Размер .torrent файла 13 KB


Размер: 2.63 GB
Хэш (hash) релиза: 08eff5803bafaedb8a7ef433e40576bd2a029de4
Подписка на обновления:

Еще никто не оставлял запись к записи скачать торрент Оставленные The Outer Wild . Будь первым!

!Обратная связь