Скачать через торрент Отсев: Новый мировой порядок The Thinning: New World Order Фильм бесплатно в хорошем качестве torrent

Скачивайте на UnionPeer.org фильмы через торрент без регистрации. Новинки кино в хорошем качестве через торрент. На UnionPeer.org можно скачать через торрент фильмы 2014 и 2015 годов. Самые новые фильмы.

Скачать торрент Отсев: Новый мировой порядок The Thinning: New World Order бесплатно через .torrent фильм мультфильм сериал

Статистика раздачи
Размер:  1.96 GB   |    Зарегистрирован:  5 лет 4 месяца   |    .torrent скачан:  195 раз   |   
Раздают:  1  
 

Скачать Отсев: Новый мировой порядок / The Thinning: New World Order (2018) WEB-DL 1080p от Ash61 | L через torrent

 
 
Автор Сообщение

Galfimbul

avatar Galfimbul


Отсев: Новый мировой порядок
The Thinning: New World Order

Год выпуска: 2016
Страна: США (YouTube Originals, Legendary Digital Studios, Cinemand Films, Entertainment One)
Жанр: антиутопия, боевик, триллер
Продолжительность: 01:29:02

Перевод: Любительский (многоголосый закадровый) - Синема УС

Режиссер: Майкл Дж. Галлахер / Michael J. Gallagher
В ролях:

Пейтон Лист (Лейна Майклс), Логан Пол (Блейк Реддинг), Лия Мари Джонсон (Элли Харпер), Кэлам Уорси (Келлан Вудс), Чарльз Мелтон (Кейдж), Роум Флинн (Джек), Мэттью Глэйв (губернатор Дин Реддинг), Лаура Хэрринг (Джорджина Престон), Эми Паффрат (Венди Бэнкс), Майкл Трэйнор (Мэйсон Кинг), Яна Винтерниц (мисс Коул), Пресцилиана Эспаролини (агент Моррис), Стивен Кокс (Уэйд Фримэн)
Описание: После того, как рискуя жизнью Лейна Майклс разоблачила коррупционную схему экзамена "Отсев", она стала сотрудницей штаба президентской кампании губернатора Дина Реддинга. А в это время Блейк Реддинг попал в рабство в секретном подземном лагере, где ему приходится бороться за воссоединение со своей любимой. Он решается на то, чего еще не делал ни один ученик, заваливший тест - собирается сбежать...
Доп. инфо: Русская дорога получена вставкой фраз в центр оригинала.

Премьера (мир): 17 октября 2018


Качество: WEB-DL 1080p
Контейнер: MKV

Видео: AVC / 1920х1080p / 23,976 fps / 2314 Kbps

Аудио:
#1 - Русский / AC3 / 48 KHz / 5.1 ch / 384 Kbps (MVO - Синема УС) (перемонтаж из Koshara - Ash61)
#2 - Английский / AC3 / 48 KHz / 5.1 ch / 384 Kbps (Original)

Субтитры (SRT):
Вшитые (softsub):
#1 - Русские Форсированные (включены по умолчанию) [Ash61]
#2 - English Full
#3 - English SDH

Внешние (UTF-8):
#1 - Русские Форсированные (включены по умолчанию) [Ash61]
General
Unique ID : 209840170386826416701142067029006333525 (0x9DDDBF2C3596C60C807F89AEB90BB655)
Complete name : D:#Releases2DTheThinning.NewWorldOrder(2018)WEBRip.1080p(MVO[Ash61])TheThinning.NewWorldOrder(2018)WEBRip.1080p(MVO[Ash61]).mkv
Format : Matroska
Format version : Version 2
File size : 1.96 GiB
Duration : 1h 29mn
Overall bit rate : 3 145 Kbps
Movie name : Отсев: Новый мировой порядок / The Thinning: New World Order (2018)
Encoded date : UTC 2018-10-29 19:12:04
Writing application : mkvmerge v5.8.0 ('No Sleep / Pillow') built on Sep 2 2012 15:37:04
Writing library : libebml v1.2.3 + libmatroska v1.3.0

Video
ID : 1
Format : AVC
Format/Info : Advanced Video Codec
Format profile : High@L4
Format settings, CABAC : Yes
Format settings, ReFrames : 2 frames
Codec ID : V_MPEG4/ISO/AVC
Duration : 1h 29mn
Bit rate : 2 314 Kbps
Width : 1 920 pixels
Height : 1 080 pixels
Display aspect ratio : 16:9
Frame rate mode : Constant
Frame rate : 23.976 (24000/1001) fps
Color space : YUV
Chroma subsampling : 4:2:0
Bit depth : 8 bits
Scan type : Progressive
Bits/(Pixel*Frame) : 0.047
Stream size : 1.44 GiB (74%)
Title : The.Thinning.New.World.Order.2018.1080p.RED.WEBRip.AAC5.1.H.264-LAZY
Language : English
Default : Yes
Forced : No
Color range : Limited
Color primaries : BT.709
Transfer characteristics : BT.709
Matrix coefficients : BT.709

Audio #1
ID : 2
Format : AC-3
Format/Info : Audio Coding 3
Mode extension : CM (complete main)
Format settings, Endianness : Big
Codec ID : A_AC3
Duration : 1h 29mn
Bit rate mode : Constant
Bit rate : 384 Kbps
Channel(s) : 6 channels
Channel positions : Front: L C R, Side: L R, LFE
Sampling rate : 48.0 KHz
Frame rate : 31.250 fps (1536 spf)
Compression mode : Lossy
Stream size : 245 MiB (12%)
Title : MVO - Синема УС (перемонтаж из Koshara - Ash61)
Language : Russian
Default : Yes
Forced : No

Audio #2
ID : 3
Format : AC-3
Format/Info : Audio Coding 3
Mode extension : CM (complete main)
Format settings, Endianness : Big
Codec ID : A_AC3
Duration : 1h 29mn
Bit rate mode : Constant
Bit rate : 384 Kbps
Channel(s) : 6 channels
Channel positions : Front: L C R, Side: L R, LFE
Sampling rate : 48.0 KHz
Frame rate : 31.250 fps (1536 spf)
Compression mode : Lossy
Stream size : 245 MiB (12%)
Title : Original
Language : English
Default : No
Forced : No

Text #1
ID : 4
Format : UTF-8
Codec ID : S_TEXT/UTF8
Codec ID/Info : UTF-8 Plain Text
Title : Форсированные (для Синема УС) [от Ash61]
Language : Russian
Default : Yes
Forced : No

Text #2
ID : 5
Format : UTF-8
Codec ID : S_TEXT/UTF8
Codec ID/Info : UTF-8 Plain Text
Title : Full
Language : English
Default : No
Forced : No

Text #3
ID : 6
Format : UTF-8
Codec ID : S_TEXT/UTF8
Codec ID/Info : UTF-8 Plain Text
Title : SDH
Language : English
Default : No
Forced : No

Источник http://BlaTor.org

Внимание! AdBlock блокирует показ скриншотов, все вопросы к разработчикам )))
Трекер:  [ 30-Окт-2018 13:10 ]

  

Скачать .torrent

Размер .torrent файла 20 KB


Размер: 1.96 GB
Хэш (hash) релиза: ed9d4262e44b7977acefecbd20bd4d9cc70b7e97
Подписка на обновления:

Еще никто не оставлял запись к записи скачать торрент Отсев: Новый мировой порядок The Thinning: New World Order . Будь первым!

!Обратная связь