Скачать через торрент Суперсемейка 2 Incredibles 2 Фильм бесплатно в хорошем качестве torrent

Скачивайте на UnionPeer.org фильмы через торрент без регистрации. Новинки кино в хорошем качестве через торрент. На UnionPeer.org можно скачать через торрент фильмы 2014 и 2015 годов. Самые новые фильмы.

Скачать торрент Суперсемейка 2 Incredibles 2 бесплатно через .torrent фильм мультфильм сериал

Статистика раздачи
Размер:  5.26 GB   |    Зарегистрирован:  11 дней   |    .torrent скачан:  132 раза   |   
Раздают:  1  
   
загрузка...
 
Автор Сообщение

Galfimbul

avatar Galfimbul




Анонсы 1080p от qqss44



Информация о фильме
Суперсемейка 2 /Incredibles 2

Год выпуска: 2018
Жанр: Мультфильм
, фантастика, боевик, комедия, приключения, семейный, полнометражный
Режиссер: Брэд Берд
В ролях: Крэйг Т. Нельсон, Холли Хантер, Сара Вауэлл, Хак Милнер, Кэтрин Кинер, Илай Фучиле, Боб Оденкёрк, Сэмюэл Л. Джексон, Майкл Бёрд, София Буш

О фильме:
После событий первой части суперсемейка пользуется повышенным вниманием со стороны журналистов. Неожиданно оказалось, что обаятельная Миссис Исключительная гораздо лучше смотрится на экране телевизора, чем её муж. Мистеру Исключительному все чаще приходится сидеть дома и приглядывать за детьми, у каждого из которых есть свои причины быть недовольным собственными суперспособностями. Однако семейным проблемам предстоит отступить на второй план, когда окажется, что спокойствию Суперсемейки угрожает новый могущественный враг.



Страна: США
Студия: Pixar Animation Studios, Walt Disney Pictures
Продолжительность: 01:57:50
Перевод: Дублированный | iTunes

Файл
Формат: MKV, BDRip 1080p
Видео: MPEG-4 AVC, 6000 Кбит/с, 1920x804
Aудио#1: [RUS] AC3 | 48 KHz | 5.1 (Front: L С R Side: L R) + LFE | ~384 kbps
Субтитры: русские форсированные и полные

Общее
Уникальный идентификатор : 209773846592519004372325714833471437371 (0x9DD0F9283C14BA2F8F9E600C71F3FA3B)
Полное имя : H:The.Incredibles.2.(2018).BDRip-1080p.MegaPeer.(qqss44).mkv
Формат : Matroska
Версия формата : Version 2
Размер файла : 5,26 Гбайт
Продолжительность : 1 ч. 57 м.
Общий поток : 6386 Кбит/сек
Название фильма : The.Incredibles.2.(2018).BDRip-1080p.MegaPeer.(qqss44)
Дата кодирования : UTC 2018-11-04 09:21:30
Программа кодирования : mkvmerge v7.8.0 ('River Man') 32bit built on Apr 3 2015 12:11:22
Библиотека кодирования : libebml v1.3.1 + libmatroska v1.4.2

Видео
Идентификатор : 1
Формат : AVC
Формат/Информация : Advanced Video Codec
Профиль формата : High@L4.1
Параметр CABAC формата : Да
Параметр ReFrames формата : 5 кадров
Идентификатор кодека : V_MPEG4/ISO/AVC
Продолжительность : 1 ч. 57 м.
Битрейт : 6000 Кбит/сек
Ширина : 1920 пикселей
Высота : 804 пикселя
Соотношение сторон : 2,40:1
Режим частоты кадров : Постоянный
Частота кадров : 23,976 (24000/1001) кадра/сек
Цветовое пространство : YUV
Субдискретизация насыщенности : 4:2:0
Битовая глубина : 8 бит
Тип развёртки : Прогрессивная
Бит/(Пиксели*Кадры) : 0.162
Размер потока : 4,84 Гбайт (92%)
Библиотека кодирования : x264 core 152 r2851 ba24899
Настройки программы : cabac=1 / ref=5 / deblock=1:0:0 / analyse=0x3:0x113 / me=umh / subme=11 / psy=1 / psy_rd=1.00:0.00 / mixed_ref=1 / me_range=32 / chroma_me=1 / trellis=2 / 8x8dct=1 / cqm=0 / deadzone=21,11 / fast_pskip=0 / chroma_qp_offset=-2 / threads=12 / lookahead_threads=2 / sliced_threads=0 / nr=0 / decimate=0 / interlaced=0 / bluray_compat=0 / constrained_intra=0 / bframes=9 / b_pyramid=2 / b_adapt=2 / b_bias=0 / direct=3 / weightb=1 / open_gop=0 / weightp=2 / keyint=250 / keyint_min=23 / scenecut=40 / intra_refresh=0 / rc_lookahead=40 / rc=2pass / mbtree=0 / bitrate=6000 / ratetol=1.0 / qcomp=0.70 / qpmin=0 / qpmax=69 / qpstep=4 / cplxblur=20.0 / qblur=0.5 / vbv_maxrate=50000 / vbv_bufsize=62500 / nal_hrd=none / filler=0 / ip_ratio=1.40 / pb_ratio=1.30 / aq=3:0.70
Язык : English
Default : Да
Forced : Нет

Аудио
Идентификатор : 2
Формат : AC-3
Формат/Информация : Audio Coding 3
Расширение режима : CM (complete main)
Параметр Endianness формата : Big
Идентификатор кодека : A_AC3
Продолжительность : 1 ч. 57 м.
Вид битрейта : Постоянный
Битрейт : 384 Кбит/сек
Каналы : 6 каналов
Расположение каналов : Front: L C R, Side: L R, LFE
Частота : 48,0 КГц
Частота кадров : 31,250 кадров/сек (1536 spf)
Метод сжатия : С потерями
Размер потока : 324 Мбайт (6%)
Язык : Russian
Default : Да
Forced : Нет

Текст #1
Идентификатор : 3
Формат : UTF-8
Идентификатор кодека : S_TEXT/UTF8
Идентификатор кодека/Информация : UTF-8 Plain Text
Язык : Russian
Default : Да
Forced : Нет

Текст #2
Идентификатор : 4
Формат : UTF-8
Идентификатор кодека : S_TEXT/UTF8
Идентификатор кодека/Информация : UTF-8 Plain Text
Язык : Russian
Default : Нет
Forced : Нет

Меню
00:00:00.000 : :00:00:00.000
00:03:22.327 : :00:03:22.327
00:08:53.616 : :00:08:53.616
00:09:36.784 : :00:09:36.784
00:13:38.276 : :00:13:38.276
00:15:44.735 : :00:15:44.735
00:21:19.737 : :00:21:19.737
00:23:28.282 : :00:23:28.282
00:27:08.794 : :00:27:08.794
00:28:59.571 : :00:28:59.571
00:35:10.900 : :00:35:10.900
00:39:07.845 : :00:39:07.845
00:42:43.894 : :00:42:43.894
00:43:42.411 : :00:43:42.411
00:47:35.352 : :00:47:35.352
00:48:53.889 : :00:48:53.889
00:54:15.585 : :00:54:15.585
00:56:16.039 : :00:56:16.039
01:00:58.696 : :01:00:58.696
01:02:01.884 : :01:02:01.884
01:06:55.511 : :01:06:55.511
01:09:18.237 : :01:09:18.237
01:11:28.200 : :01:11:28.200
01:12:37.686 : :01:12:37.686
01:14:39.266 : :01:14:39.266
01:18:00.968 : :01:18:00.968
01:20:32.536 : :01:20:32.536
01:25:01.930 : :01:25:01.930
01:27:59.440 : :01:27:59.440
01:31:53.925 : :01:31:53.925
01:33:26.434 : :01:33:26.434
01:36:25.237 : :01:36:25.237
01:37:45.192 : :01:37:45.192
01:43:56.897 : :01:43:56.897
01:45:35.912 : :01:45:35.912
01:47:30.902 : :01:47:30.902
Источник http://BlaTor.org

Трекер:  [ 04-Ноя-2018 13:40 ]

  

Скачать .torrent

Размер .torrent файла 26 KB


Размер: 5.26 GB
Хэш (hash) релиза: 87656e4b69ce972ad54b271befaa0be0ddf4bf55
Подписка на обновления:

Торренты, похожие на Суперсемейка 2 Incredibles 2 скачать торрент

Форум Название Автор Размер S L Добавлен
Мультфильмы 2016-2018 (Новинки мультфильмов) ·%· Суперсемейка 2 / Incredibles 2 (2018) UHD BDRemux 2160p от селезень | 4K | HDR | iTunes Galfimbul 4369982613940.7 GB 0 0 1541762501

14:21

9-Ноя-18

Мультфильмы 2016-2018 (Новинки мультфильмов) ·%· Суперсемейка 2 / Incredibles 2 (2018) HDRip от Scarabey | iTunes Galfimbul 14976327681.39 GB 0 0 1541438551

20:22

5-Ноя-18

Зарубежные фильмы 2016-2018 (Новинки зарубежного кино) ·%· Суперсемейка 2 / Incredibles 2 (2018) BDRip-AVC от HELLYWOOD | iTunes Galfimbul 15149514831.41 GB 0 0 1541348504

19:21

4-Ноя-18

Мультфильмы 2016-2018 (Новинки мультфильмов) ·%· Суперсемейка 2 / Incredibles 2 (2018) BDRip от ExKinoRay | iTunes Galfimbul 22864515842.13 GB 0 0 1541317923

10:52

4-Ноя-18

Мультфильмы 2016-2018 (Новинки мультфильмов) ·%· Суперсемейка 2 / Incredibles 2 (2018) BDRip от ExKinoRay | iTunes Galfimbul 15149492921.41 GB 0 0 1541315678

10:14

4-Ноя-18

Мультфильмы 2016-2018 (Новинки мультфильмов) ·%· Суперсемейка 2 / Incredibles 2 (2018) HDRip от Kaztorrents | КПК | iTunes Galfimbul 470046480448 MB 0 0 1541260217

18:50

3-Ноя-18

Мультфильмы 2016-2018 (Новинки мультфильмов) ·%· Суперсемейка 2 / Incredibles 2 (2018) BDRip 1080p от Ash61 | 3D-Video | halfOU | iTunes Galfimbul 81477977697.59 GB 0 0 1541256196

17:43

3-Ноя-18

Мультфильмы 2016-2018 (Новинки мультфильмов) ·%· Суперсемейка 2 / Incredibles 2 (2018) BDRip-HEVC 1080p от sm0tJay | iTunes Galfimbul 55643080195.18 GB 0 0 1541235838

12:03

3-Ноя-18

Мультфильмы 2016-2018 (Новинки мультфильмов) ·%· Суперсемейка 2 / Incredibles 2 (2018) BDRip 1080p от селезень | iTunes Galfimbul 90112400398.39 GB 0 0 1541139013

09:10

2-Ноя-18

Мультфильмы 2016-2018 (Новинки мультфильмов) ·%· Суперсемейка 2 / Incredibles 2 (2018) BDRemux 1080p от селезень | iTunes Galfimbul 2284333713921.27 GB 0 0 1541116818

03:00

2-Ноя-18

Мультфильмы 2016-2018 (Новинки мультфильмов) ·%· Суперсемейка 2 / Incredibles 2 (2018) WEB-DLRip-AVC от ExKinoRay | iTunes Galfimbul 23155457032.16 GB 0 0 1540528039

07:27

26-Окт-18

Мультфильмы 2016-2018 (Новинки мультфильмов) ·%· Суперсемейка 2 / Incredibles 2 (2018) WEB-DLRip от MegaPeer | iTunes Galfimbul 15687211251.46 GB 0 0 1540497234

22:53

25-Окт-18

Мультфильмы 2016-2018 (Новинки мультфильмов) ·%· Суперсемейка 2 / Incredibles 2 (2018) WEB-DL 1080p от TeamHD | iTunes Galfimbul 46599733204.34 GB 0 0 1540494901

22:15

25-Окт-18

Мультфильмы 2016-2018 (Новинки мультфильмов) ·%· Суперсемейка 2 / Incredibles 2 (2018) TS 720p | GreenРай Studio Galfimbul 26698299982.49 GB 0 0 1532671817

09:10

27-Июл-18

Мультфильмы 2016-2018 (Новинки мультфильмов) ·%· Суперсемейка 2 / Incredibles 2 (2018) TS | GreenРай Studio Galfimbul 14737422821.37 GB 0 0 1532663412

06:50

27-Июл-18

Мультфильмы до 2016 ·· Суперсемейка / The Incredibles (Брэд Бёрд / Brad Bird) [2004 г., мультфильм, фэнтези, боевик, приключения, семейный, 2 х DVD9] Лицензионное издание от Видеосервиса Captain Claw 1275523686411.88 GB 0 0 1293315541

01:19

26-Дек-10

Еще никто не оставлял запись к записи скачать торрент Суперсемейка 2 Incredibles 2 . Будь первым!

!Обратная связь