Скачать через торрент Игры хакеров: Возвращение Hacker's Game Redux Фильм бесплатно в хорошем качестве torrent

Скачивайте на UnionPeer.org фильмы через торрент без регистрации. Новинки кино в хорошем качестве через торрент. На UnionPeer.org можно скачать через торрент фильмы 2014 и 2015 годов. Самые новые фильмы.

Скачать торрент Игры хакеров: Возвращение Hacker's Game Redux бесплатно через .torrent фильм мультфильм сериал

Статистика раздачи
Размер:  1.28 GB   |    Зарегистрирован:  7 дней   |    .torrent скачан:  57 раз   |   
Раздают:  1  
   
загрузка...
 
Автор Сообщение

Galfimbul

avatar Galfimbul


Игры хакеров: Возвращение /Hacker's Game Redux

Год выхода: 2018
Жанр: Триллер
Режиссер: Сирил Морин
В ролях: Пом Клементьефф, Алена фон Строхейм, Сиркус-Шалевски, Гайла Джонсон, Росс Батлер, Тед Мэттисон, Крис Шелленгер, Кинг Орба
О фильме:
Сойан - хакер, работающий на компанию, которую до этого взломал. Эта онлайн-фирма по безопасности проводит скрытые действия для высококлассных клиентов по всему миру. Луис - кибер-детектив, она расследует военные преступления для правозащитной организации. Она одержима истиной. Луис и Сойан находят связь, но Сойан должен защитить того же торговца оружием, которого Луис хочет поймать. Какова реальная цель Сойана? Между Луис и Сойан возникает опасный роман. Нахоясь в виртуальном мире, готовы ли Сойан и Луис рискнуть всем ради настоящей любви?


Страна: США, Media in Sync
Продолжительность: 01:29:37
Перевод: Любительский (двухголосый закадровый) | HiWay Grope

Файл
Кодек: XviD
Качество: WEBRip
Видео: 720x304, 23.976 fps, ~1778 kbps, 0.34 bit/pixel
Звук:
Аудио rus: AC3, 48 kHz, 6 ch, 256 Kbps
Субтитры: отсутствуют

Реклама: присутствует

Семпл
General
Complete name : D:Hackers.Game.Redux.2018.WEBRip.HiWayGropeHackers.Game.Redux.2018.WEBRip.HiWayGrope.avi
Format : AVI
Format/Info : Audio Video Interleave
Format profile : OpenDML
File size : 1.28 GiB
Duration : 1 h 29 min
Overall bit rate : 2 041 kb/s
Writing application : Lavf57.71.100

Video
ID : 0
Format : MPEG-4 Visual
Format profile : Advanced Simple@L5
Format settings : BVOP1
Format settings, BVOP : 1
Format settings, QPel : No
Format settings, GMC : No warppoints
Format settings, Matrix : Default (H.263)
Codec ID : XVID
Codec ID/Hint : XviD
Duration : 1 h 29 min
Bit rate : 1 773 kb/s
Width : 720 pixels
Height : 304 pixels
Display aspect ratio : 2.35:1
Frame rate : 23.976 (24000/1001) FPS
Color space : YUV
Chroma subsampling : 4:2:0
Bit depth : 8 bits
Scan type : Progressive
Compression mode : Lossy
Bits/(Pixel*Frame) : 0.338
Stream size : 1.11 GiB (87%)
Writing library : XviD 67

Audio
ID : 1
Format : AC-3
Format/Info : Audio Coding 3
Codec ID : 2000
Duration : 1 h 29 min
Bit rate mode : Constant
Bit rate : 256 kb/s
Channel(s) : 6 channels
Channel positions : Front: L C R, Side: L R, LFE
Sampling rate : 48.0 kHz
Frame rate : 31.250 FPS (1536 SPF)
Bit depth : 16 bits
Compression mode : Lossy
Stream size : 164 MiB (13%)
Alignment : Aligned on interleaves
Interleave, duration : 32 ms (0.77 video frame)
Service kind : Complete Main
Релиз от: HiWay Grope
Источник http://BlaTor.org

Трекер:  [ 09-Ноя-2018 02:10 ]

  

Скачать .torrent

Размер .torrent файла 13 KB


Размер: 1.28 GB
Хэш (hash) релиза: 05c39f7485367b79508de510433533b7bb9a73ca
Подписка на обновления:

Торренты, похожие на Игры хакеров: Возвращение Hacker's Game Redux скачать торрент

Форум Название Автор Размер S L Добавлен
Зарубежные фильмы 2016-2018 (Новинки зарубежного кино) ·%· Игры хакеров: Возвращение / Hacker's Game Redux (2018) WEBRip 720p | L2 Galfimbul 21661089482.02 GB 0 0 1541679631

15:20

8-Ноя-18

Еще никто не оставлял запись к записи скачать торрент Игры хакеров: Возвращение Hacker's Game Redux . Будь первым!

!Обратная связь