Скачать через торрент Миссия невыполнима: Последствия Mission: Impossible - Fallout Фильм бесплатно в хорошем качестве torrent

Скачивайте на UnionPeer.org фильмы через торрент без регистрации. Новинки кино в хорошем качестве через торрент. На UnionPeer.org можно скачать через торрент фильмы 2014 и 2015 годов. Самые новые фильмы.

Скачать торрент Миссия невыполнима: Последствия Mission: Impossible - Fallout бесплатно через .torrent фильм мультфильм сериал

Статистика раздачи
Размер:  15.62 GB   |    Зарегистрирован:  28 дней   |    .torrent скачан:  232 раза   |   
Раздают:  1  
   
загрузка...
 
Автор Сообщение

Galfimbul

avatar Galfimbul


Миссия невыполнима: Последствия /Mission: Impossible - Fallout

Год выхода: 2018
Жанр: Боевик, триллер, приключения
Режиссер: Кристофер МакКуорри
В ролях: Том Круз, Ребекка Фергюсон (II), Генри Кавилл, Мишель Монахэн, Ванесса Кирби, Уэс Бентли, Саймон Пегг, Анджела Бассетт, Алек Болдуин, Винг Рэймс



О фильме: Итан Хант и его команда, а также недавно примкнувшие к ним союзники, вынуждены действовать наперегонки со временем, когда новая миссия идет не по плану.

Страна: США
Студия: Bad Robot, Paramount Pictures, Skydance Media
Продолжительность: 02:27:25
Перевод: Дублированный | iTunes

Качество: BDRip 1080p | CHD (Thanks!)
Видео: MPEG-4 AVC, 1920x1014, 14.0 Mbit/s, 23.976 fps
Звук:
Аудио #01: 48 kHz, AC3, 5.1, 384 Kbps | iTunes | RUS |
Аудио #02: 48 kHz, AC3, 2.0, 160 Kbps | iTunes | RUS |
Аудио #03: 48 kHz, AC3, 5.1, 640 Kbps | Оригинал | ENG |
Субтитры: Русские (Forced, full), украинские (Forced, full), английские (SDH, SDH Colored)

General
Unique ID : 131195806011402230977029832374650650659 (0x62B364A4A963E350A2087CE3203FC023)
Complete name : D:Video111Mission.Impossible.Fallout.2018.BDRip.1080p.selezen.mkv
Format : Matroska
Format version : Version 4
File size : 15.6 GiB
Duration : 2 h 27 min
Overall bit rate : 15.2 Mb/s
Movie name : Mission Impossible Fallout 2018 from селезень
Encoded date : UTC 2018-11-14 19:55:55
Writing application : mkvmerge v28.2.0 ('The Awakening') 64-bit
Writing library : libebml v1.3.6 + libmatroska v1.4.9

Video
ID : 1
Format : AVC
Format/Info : Advanced Video Codec
Format profile : High@L4.1
Format settings : CABAC / 4 Ref Frames
Format settings, CABAC : Yes
Format settings, ReFrames : 4 frames
Codec ID : V_MPEG4/ISO/AVC
Duration : 2 h 27 min
Bit rate : 14.0 Mb/s
Width : 1 920 pixels
Height : 1 014 pixels
Display aspect ratio : 1.893
Frame rate mode : Constant
Frame rate : 23.976 (24000/1001) FPS
Color space : YUV
Chroma subsampling : 4:2:0
Bit depth : 8 bits
Scan type : Progressive
Bits/(Pixel*Frame) : 0.300
Stream size : 14.4 GiB (92%)
Writing library : x264 core 155 r2867+74 66b5600 t_mod_Custom_2 [8-bit@all X86_64]
Encoding settings : cabac=1 / ref=4 / deblock=1:-3:-3 / analyse=0x3:0x133 / me=umh / subme=11 / psy=1 / fade_compensate=0.00 / psy_rd=0.95:0.10 / mixed_ref=1 / me_range=48 / chroma_me=1 / trellis=2 / 8x8dct=1 / cqm=0 / deadzone=21,11 / fast_pskip=0 / chroma_qp_offset=-4 / threads=12 / lookahead_threads=2 / sliced_threads=0 / nr=0 / decimate=1 / interlaced=0 / bluray_compat=0 / constrained_intra=0 / fgo=0 / bframes=8 / b_pyramid=2 / b_adapt=2 / b_bias=0 / direct=3 / weightb=1 / open_gop=0 / weightp=2 / keyint=250 / keyint_min=23 / scenecut=40 / intra_refresh=0 / rc_lookahead=30 / rc=2pass / mbtree=0 / bitrate=14000 / ratetol=1.0 / qcomp=0.70 / qpmin=0:0:0 / qpmax=69:69:69 / qpstep=4 / cplxblur=20.0 / qblur=0.5 / vbv_maxrate=35000 / vbv_bufsize=35000 / nal_hrd=none / filler=0 / ip_ratio=1.40 / pb_ratio=1.30 / aq=3:1.00 / aq-sensitivity=10.00 / aq-factor=1.00:1.00:1.00 / aq2=0 / aq3=2:[0.50:0.50]:[0.50:0.50]:[0.50:0.50]:[0.50:0.50] / aq3-sensitivity=10.00 / aq3-factor=[1.00:1.00]:[1.00:1.00]:[1.00:1.00] / aq3-boundary=192:64:24
Language : English
Default : Yes
Forced : No

Audio #1
ID : 2
Format : AC-3
Format/Info : Audio Coding 3
Commercial name : Dolby Digital
Codec ID : A_AC3
Duration : 2 h 27 min
Bit rate mode : Constant
Bit rate : 384 kb/s
Channel(s) : 6 channels
Channel layout : L R C LFE Ls Rs
Sampling rate : 48.0 kHz
Frame rate : 31.250 FPS (1536 SPF)
Bit depth : 16 bits
Compression mode : Lossy
Stream size : 405 MiB (3%)
Title : iTunes
Language : Russian
Service kind : Complete Main
Default : Yes
Forced : Yes

Audio #2
ID : 3
Format : AC-3
Format/Info : Audio Coding 3
Commercial name : Dolby Digital
Codec ID : A_AC3
Duration : 2 h 27 min
Bit rate mode : Constant
Bit rate : 160 kb/s
Channel(s) : 2 channels
Channel layout : L R
Sampling rate : 48.0 kHz
Frame rate : 31.250 FPS (1536 SPF)
Bit depth : 16 bits
Compression mode : Lossy
Stream size : 169 MiB (1%)
Title : iTunes
Language : Ukrainian
Service kind : Complete Main
Default : No
Forced : No

Audio #3
ID : 4
Format : AC-3
Format/Info : Audio Coding 3
Commercial name : Dolby Digital
Codec ID : A_AC3
Duration : 2 h 27 min
Bit rate mode : Constant
Bit rate : 640 kb/s
Channel(s) : 6 channels
Channel layout : L R C LFE Ls Rs
Sampling rate : 48.0 kHz
Frame rate : 31.250 FPS (1536 SPF)
Bit depth : 16 bits
Compression mode : Lossy
Stream size : 675 MiB (4%)
Title : Original
Language : English
Service kind : Complete Main
Default : No
Forced : No

Text #1
ID : 5
Format : UTF-8
Codec ID : S_TEXT/UTF8
Codec ID/Info : UTF-8 Plain Text
Duration : 2 h 25 min
Bit rate : 1 b/s
Count of elements : 36
Stream size : 1.29 KiB (0%)
Title : Forced
Language : Russian
Default : Yes
Forced : Yes

Text #2
ID : 6
Format : UTF-8
Codec ID : S_TEXT/UTF8
Codec ID/Info : UTF-8 Plain Text
Duration : 2 h 26 min
Bit rate : 68 b/s
Count of elements : 1575
Stream size : 73.1 KiB (0%)
Title : Full
Language : Russian
Default : No
Forced : No

Text #3
ID : 7
Format : UTF-8
Codec ID : S_TEXT/UTF8
Codec ID/Info : UTF-8 Plain Text
Duration : 2 h 25 min
Bit rate : 1 b/s
Count of elements : 37
Stream size : 1.31 KiB (0%)
Title : Forced
Language : Ukrainian
Default : No
Forced : No

Text #4
ID : 8
Format : UTF-8
Codec ID : S_TEXT/UTF8
Codec ID/Info : UTF-8 Plain Text
Duration : 2 h 26 min
Bit rate : 75 b/s
Count of elements : 1576
Stream size : 80.7 KiB (0%)
Title : Full
Language : Ukrainian
Default : No
Forced : No

Text #5
ID : 9
Format : UTF-8
Codec ID : S_TEXT/UTF8
Codec ID/Info : UTF-8 Plain Text
Duration : 2 h 19 min
Bit rate : 53 b/s
Count of elements : 1854
Stream size : 55.0 KiB (0%)
Title : SDH
Language : English
Default : No
Forced : No

Text #6
ID : 10
Format : UTF-8
Codec ID : S_TEXT/UTF8
Codec ID/Info : UTF-8 Plain Text
Duration : 2 h 19 min
Bit rate : 92 b/s
Count of elements : 1854
Stream size : 94.8 KiB (0%)
Title : SDH Colored
Language : English
Default : No
Forced : No

Menu
00:00:00.000 : en:00:00:00.000
00:10:37.011 : en:00:10:37.011
00:17:11.405 : en:00:17:11.405
00:26:57.241 : en:00:26:57.241
00:35:56.654 : en:00:35:56.654
00:49:18.414 : en:00:49:18.414
01:00:00.806 : en:01:00:00.806
01:10:23.719 : en:01:10:23.719
01:17:07.289 : en:01:17:07.289
01:28:28.470 : en:01:28:28.470
01:39:09.652 : en:01:39:09.652
01:46:26.547 : en:01:46:26.547
01:55:45.564 : en:01:55:45.564
02:03:10.592 : en:02:03:10.592
02:14:00.908 : en:02:14:00.908
02:19:48.088 : en:02:19:48.088
Источник http://BlaTor.org

Трекер:  [ 15-Ноя-2018 03:30 ]

  

Скачать .torrent

Размер .torrent файла 78 KB


Размер: 15.62 GB
Хэш (hash) релиза: 9ccfcd4a470b4ab5eebce14a90f0609404fff681
Подписка на обновления:

Торренты, похожие на Миссия невыполнима: Последствия Mission: Impossible - Fallout скачать торрент

Форум Название Автор Размер S L Добавлен
Зарубежные фильмы 2016-2018 (Новинки зарубежного кино) ·%· Миссия невыполнима: Последствия / Mission: Impossible - Fallout (2018) BDRip от HQ-ViDEO | IMAX | Лицензия Galfimbul 31178260482.9 GB 0 0 1544253065

10:11

8-Дек-18

Зарубежные фильмы 2016-2018 (Новинки зарубежного кино) ·%· Миссия невыполнима: Последствия / Mission: Impossible - Fallout (2018) Blu-ray EUR 1080p | IMAX Edition | Лицензия Galfimbul 4518712240842.08 GB 0 0 1544052044

02:20

6-Дек-18

Зарубежные фильмы 2016-2018 (Новинки зарубежного кино) ·%· Миссия невыполнима: Последствия / Mission: Impossible - Fallout (2018) BDRip-AVC от OlLanDGroup | IMAX Edition | Лицензия Galfimbul 32197049813 GB 0 0 1544050239

01:50

6-Дек-18

Зарубежные фильмы 2016-2018 (Новинки зарубежного кино) ·%· Миссия невыполнима: Последствия / Mission: Impossible - Fallout (2018) UHD BDRip 720p от KORSAR | IMAX Edition | iTunes Galfimbul 98576347229.18 GB 0 0 1543536672

03:11

30-Ноя-18

Зарубежные фильмы 2016-2018 (Новинки зарубежного кино) ·%· Миссия невыполнима: Последствия / Mission: Impossible - Fallout (2018) UHD Blu-Ray 2160p от ExKinoRay | IMAX Edition | HDR | Dolby Vision | iTunes Galfimbul 9569190849789.12 GB 0 0 1543233010

14:50

26-Ноя-18

Зарубежные фильмы 2016-2018 (Новинки зарубежного кино) ·%· Миссия невыполнима: Последствия / Mission: Impossible - Fallout (2018) BDRip от ExKinoRay | IMAX Edition | iTunes Galfimbul 15719243001.46 GB 0 0 1542631264

15:41

19-Ноя-18

Зарубежные фильмы 2016-2018 (Новинки зарубежного кино) ·%· Миссия невыполнима: Последствия / Mission: Impossible - Fallout (2018) HDRip от Scarabey | IMAX Edition | iTunes Galfimbul 938745856895 MB 0 0 1542624646

13:50

19-Ноя-18

Зарубежные фильмы 2016-2018 (Новинки зарубежного кино) ·%· Миссия невыполнима: Последствия / Mission: Impossible - Fallout (2018) BDRip от ExKinoRay | IMAX Edition | iTunes Galfimbul 22734937882.12 GB 0 0 1542594662

05:31

19-Ноя-18

Зарубежные фильмы 2016-2018 (Новинки зарубежного кино) ·%· Миссия невыполнима: Последствия / Mission: Impossible - Fallout (2018) BDRip 720p от k.e.n & MegaPeer | IMAX Edition | iTunes Galfimbul 60964228965.68 GB 0 0 1542434421

09:00

17-Ноя-18

Зарубежные фильмы 2016-2018 (Новинки зарубежного кино) ·%· Миссия невыполнима: Последствия / Mission: Impossible - Fallout (2018) HDRip от Scarabey | IMAX Edition | iTunes Galfimbul 22676561922.11 GB 0 0 1542424808

06:20

17-Ноя-18

Зарубежные фильмы 2016-2018 (Новинки зарубежного кино) ·%· Миссия невыполнима: Последствия / Mission: Impossible - Fallout (2018) BDRip-HEVC 1080p | IMAX Edition | iTunes Galfimbul 79400362527.39 GB 0 0 1542397853

22:50

16-Ноя-18

Зарубежные фильмы 2016-2018 (Новинки зарубежного кино) ·%· Миссия невыполнима: Последствия / Mission: Impossible - Fallout (2018) BDRip-AVC от ExKinoRay | IMAX Edition | iTunes Galfimbul 34707396013.23 GB 0 0 1542382853

18:40

16-Ноя-18

Зарубежные фильмы 2016-2018 (Новинки зарубежного кино) ·%· Миссия невыполнима: Последствия / Mission: Impossible - Fallout (2018) BDRip от MegaPeer | IMAX Edition | iTunes Galfimbul 23435182722.18 GB 0 0 1542376261

16:51

16-Ноя-18

Зарубежные фильмы 2016-2018 (Новинки зарубежного кино) ·%· Миссия невыполнима: Последствия / Mission: Impossible - Fallout (2018) HDRip от Scarabey | IMAX Edition | iTunes Galfimbul 15562895361.45 GB 0 0 1542363655

13:20

16-Ноя-18

Зарубежные фильмы 2016-2018 (Новинки зарубежного кино) ·%· Миссия невыполнима: Последствия / Mission: Impossible - Fallout (2018) BDRip-AVC от HELLYWOOD | IMAX Edition | iTunes Galfimbul 14959400181.39 GB 0 0 1542358274

11:51

16-Ноя-18

Зарубежные фильмы 2016-2018 (Новинки зарубежного кино) ·%· Миссия невыполнима: Последствия / Mission: Impossible - Fallout (2018) BDRip 720p от Scarabey | IMAX Edition | iTunes Galfimbul 95872260068.93 GB 0 0 1542310247

22:30

15-Ноя-18

Зарубежные фильмы 2016-2018 (Новинки зарубежного кино) ·%· Миссия невыполнима: Последствия / Mission: Impossible - Fallout (2018) HDRip от MegaPeer | IMAX Edition | iTunes Galfimbul 936368799893 MB 0 0 1542305461

21:11

15-Ноя-18

Зарубежные фильмы 2016-2018 (Новинки зарубежного кино) ·%· Миссия невыполнима: Последствия / Mission: Impossible - Fallout (2018) BDRemux 1080p от селезень | IMAX Edition | iTunes Galfimbul 3590847674533.44 GB 0 0 1542272461

12:01

15-Ноя-18

Зарубежные фильмы 2016-2018 (Новинки зарубежного кино) ·%· Миссия невыполнима: Последствия / Mission: Impossible - Fallout (2018) BDRip-AVC от HELLYWOOD | IMAX Edition | iTunes Galfimbul 30542798752.84 GB 0 0 1542262810

09:20

15-Ноя-18

Зарубежные фильмы 2016-2018 (Новинки зарубежного кино) ·%· Миссия невыполнима: Последствия / Mission: Impossible - Fallout (2018) BDRip от Dalemake | IMAX Edition | iTunes Galfimbul 15717191581.46 GB 0 0 1542255014

07:10

15-Ноя-18

Еще никто не оставлял запись к записи скачать торрент Миссия невыполнима: Последствия Mission: Impossible - Fallout . Будь первым!

!Обратная связь