Скачать через торрент На районе Фильм бесплатно в хорошем качестве torrent

Скачивайте на UnionPeer.org фильмы через торрент без регистрации. Новинки кино в хорошем качестве через торрент. На UnionPeer.org можно скачать через торрент фильмы 2014 и 2015 годов. Самые новые фильмы.

Скачать торрент На районе бесплатно через .torrent фильм мультфильм сериал

Статистика раздачи
Размер:  3.15 GB   |    Зарегистрирован:  28 дней   |    .torrent скачан:  262 раза   |   
Раздают:  1  
   
загрузка...
 
Автор Сообщение

Galfimbul

avatar Galfimbul




На районе



[b]Год выпуска:
2018
Жанр: Драма
Режиссёр: Ольга Зуева
В ролях: Данила Козловский, Илья Маланин, Елена Оболенская, Ангелина Стречина, Ольга Зуева, Андрей Амшинский, Эдгар Гизатуллин, Александр Мизев, Владимир Хацкевич, Владимир Афанасьев

Описание:
Вова и его лучший друг Киса зарабатывают деньги, занимаясь нелегальной деятельностью. Их жизнь проходит на волне веселья, в погоне за острыми ощущениями и кратковременными удовольствиями, пока очередной заказ не приводит их дружбу к главному испытанию, заставив каждого ответить на вопрос: кто ты?



Страна: Россия
Студия: DK Entertainment, Марс Медиа Энтертейнмент
Продолжительность: 01:31:26
Язык: Русский

Файл
Формат: MKV
Качество: WEB-DL 1080p
Видео: 1920x806 (2,40:1), 25 fps, MPEG-4 AVC ~ 4547 kbps avg, 0.118 bit/pixel
Звук: AC3, 48 kHz, 6 ch, ~384.00 kbps avg | русский | iTunes

Субтитры: Отсутствуют
Общее
Уникальный идентификатор : 305066408513818241959096846382788356753 (0xE581A732C38459B545EA04DFA21DAA91)
Полное имя : NA_RAIONE (2018) WEB-DL 1080p.mkv
Формат : Matroska
Версия формата : Version 4 / Version 2
Размер файла : 3,15 Гбайт
Продолжительность : 1 ч. 31 м.
Общий поток : 4933 Кбит/сек
Название фильма : NA_RAIONE (2018) WEB-DL 1080p
Дата кодирования : UTC 2018-11-15 07:24:00
Программа кодирования : mkvmerge v27.0.0 ('Metropolis') 64-bit
Библиотека кодирования : libebml v1.3.6 + libmatroska v1.4.9

Видео
Идентификатор : 1
Формат : AVC
Формат/Информация : Advanced Video Codec
Профиль формата : High@L4
Настройки формата : CABAC / 5 Ref Frames
Параметр CABAC формата : Да
Параметр RefFrames формата : 5 кадров
Идентификатор кодека : V_MPEG4/ISO/AVC
Продолжительность : 1 ч. 31 м.
Битрейт : 4547 Кбит/сек
Ширина : 1920 пикселей
Высота : 806 пикселей
Соотношение сторон : 2,40:1
Режим частоты кадров : Постоянный
Частота кадров : 25,000 кадров/сек
Цветовое пространство : YUV
Субдискретизация насыщенности : 4:2:0
Битовая глубина : 8 бит
Тип развёртки : Прогрессивная
Бит/(Пиксели*Кадры) : 0.118
Размер потока : 2,90 Гбайт (92%)
Заголовок : NA_RAIONE (2018) WEB-DL 1080p
Язык : English
Default : Да
Forced : Нет
Цветовой диапазон : Limited
Основные цвета : BT.709
Характеристики трансфера : BT.709
Коэффициенты матрицы : BT.709

Аудио
Идентификатор : 2
Формат : AC-3
Формат/Информация : Audio Coding 3
Идентификатор кодека : A_AC3
Продолжительность : 1 ч. 31 м.
Вид битрейта : Постоянный
Битрейт : 384 Кбит/сек
Каналы : 6 каналов
Расположение каналов : Front: L C R, Side: L R, LFE
Частота : 48,0 КГц
Частота кадров : 31,250 кадров/сек (1536 SPF)
Битовая глубина : 16 бит
Метод сжатия : С потерями
Размер потока : 251 Мбайт (8%)
Заголовок : iTunes | NA_RAIONE (2018) WEB-DL 1080p
Язык : Russian
Default : Да
Forced : Нет

Меню
00:00:00.000 : en:Глава 1
00:05:28.720 : en:Глава 2
00:13:16.920 : en:Глава 3
00:18:23.320 : en:Глава 4
00:23:30.200 : en:Глава 5
00:30:55.280 : en:Глава 6
00:37:49.320 : en:Глава 7
00:41:40.160 : en:Глава 8
00:46:28.800 : en:Глава 9
00:50:46.319 : en:Глава 10
00:57:40.239 : en:Глава 11
01:05:04.359 : en:Глава 12
01:11:51.199 : en:Глава 13
01:17:52.359 : en:Глава 14
01:22:54.839 : en:Глава 15
Источник http://BlaTor.org

Трекер:  [ 15-Ноя-2018 13:10 ]

  

Скачать .torrent

Размер .torrent файла 16 KB


Размер: 3.15 GB
Хэш (hash) релиза: d4c5c1214357ef1838cab4caecbada28086c2e5b
Подписка на обновления:

Торренты, похожие на На районе скачать торрент

Форум Название Автор Размер S L Добавлен
Российские фильмы 2016-2018 (Новинки русского кино) ·%· На районе (2018) WEB-DLRip-AVC | iTunes Galfimbul 779344684743 MB 0 0 1542487286

23:41

17-Ноя-18

Российские фильмы 2016-2018 (Новинки русского кино) ·%· На районе (2018) WEB-DLRip от GeneralFilm | iTunes Galfimbul 781539328745 MB 0 0 1542487276

23:41

17-Ноя-18

Российские фильмы 2016-2018 (Новинки русского кино) ·%· На районе (2018) WEB-DLRip от Generalfilm | КПК | iTunes Galfimbul 363409396347 MB 0 0 1542347504

08:51

16-Ноя-18

Российские фильмы 2016-2018 (Новинки русского кино) ·%· На районе (2018) WEB-DLRip от MegaPeer | iTunes Galfimbul 15682355201.46 GB 0 0 1542276728

13:12

15-Ноя-18

Зарубежные сериалы ·· На районе / On My Block / Сезон: 1 / Серии: 1-10 из 10 (Арлин Ричардсон, Хэл Олофссон, Эд Гонзалез) [2018, США, Комедия, WEBRip] DVO (Gears Media) + Original Galfimbul 34636624403.23 GB 0 0 1521879488

11:18

24-Мар-18

Зарубежные сериалы ·· На районе / On My Block / Сезон: 1 / Серии: 1-10 из 10 (Арлин Ричардсон, Хэл Олофссон, Эд Гонзалез) [2018, США, Комедия, WEBRip 720p] DVO (Gears Media) + Original Galfimbul 49455302254.61 GB 0 0 1521870496

08:48

24-Мар-18

Зарубежные сериалы ·· На районе / On My Block / Сезон: 1 / Серии: 1-10 из 10 (Арлин Ричардсон, Хэл Олофссон, Эд Гонзалез) [2018, США, Комедия, WEBRip] MVO (NewStudio) + Original Galfimbul 36616332243.41 GB 0 0 1521821901

19:18

23-Мар-18

Зарубежные фильмы до 2016 ·· Чужие на районе / Attack the Block (Джо Корниш / Joe Cornish) [2011, Франция, Великобритания, ужасы, фантастика, комедия, BDRemux 1080p] MVO (R5 цензурный) + MVO (R5 ненормативный) + Sub Rus, Eng + Original Eng Galfimbul 2205269563020.54 GB 0 0 1459627969

23:12

2-Апр-16

Зарубежные фильмы до 2016 ·· Чужие на районе / Attack the Block (Джо Корниш / Joe Cornish) [2011, Франция, Великобритания, ужасы, фантастика, комедия, BDRip] MVO Galfimbul 15642808321.46 GB 0 0 1375540747

17:39

3-Авг-13

Зарубежные фильмы до 2016 ·· Чужие на районе / Attack the Block (Джо Корниш) [2011, Ужасы, фантастика, комедия, BDRip] [Гоблин] Galfimbul 23360996452.18 GB 0 0 1370170731

13:58

2-Июн-13

Зарубежные фильмы до 2016 ·· Переполох на районе / Les Kaira (Франк Гастамбиде / Franck Gastambide) [2012, Франция, комедия, HDRip] Dub Galfimbul 781342720745 MB 0 0 1368083204

10:06

9-Май-13

Зарубежные фильмы до 2016 ·· Переполох на районе / Les Kaira (Франк Гастамбиде / Franck Gastambide) [2012, Франция, комедия, DVD9] R5 «Флагман-Трейд» Galfimbul 70313328646.55 GB 0 0 1367133973

10:26

28-Апр-13

Зарубежные фильмы до 2016 ·· Переполох на районе / Les Kaïra (Франк Гастамбиде) [2012, комедия, ВDRip 1080р] [Лицензия] L 73633294046.86 GB 0 0 1367125013

07:56

28-Апр-13

Зарубежные фильмы до 2016 ·· Переполох на районе / Les Kaïra (Франк Гастамбиде) [2012, комедия, BDRip 720p] [Лицензия] Galfimbul 50178599914.67 GB 0 0 1367088226

21:43

27-Апр-13

Зарубежные фильмы до 2016 ·· Переполох на районе / Les Kaïra (Франк Гастамбиде) [2012, комедия, HDRip] [Лицензия ] Galfimbul 15637790721.46 GB 0 0 1367088176

21:42

27-Апр-13

Зарубежные фильмы до 2016 ·· Чужие на районе / Attack the Block (Джо Корниш / Joe Cornish) [2011, Франция, Великобритания, фантастика, боевик, комедия, DVD9] R5 MVO Sub Rus + Original Eng [«Вольга»] L 64172687365.98 GB 0 0 1322291096

10:04

26-Ноя-11

Зарубежные фильмы до 2016 ·· Чужие на районе / Attack the Block (Джо Корниш / Joe Cornish) [2011, Франция, Великобритания, Фантастика, боевик, комедия, HDRip] MVO L 14663331841.37 GB 0 0 1322290952

10:02

26-Ноя-11

Зарубежные фильмы до 2016 ·· Чужие на районе / Attack the Block (Джо Корниш / Joe Cornish) [2011, Великобритания, Фантастика, боевик, комедия, DVDRip-AVC] DVO Galfimbul 778984478743 MB 0 0 1315639699

10:28

10-Сен-11

Зарубежные фильмы до 2016 ·· Чужие на районе / Attack the Block (Джо Корниш / Joe Cornish) [2011, Великобритания, Фантастика, боевик, комедия, DVDRip-AVC] DVO Galfimbul 15550630381.45 GB 0 0 1315539929

06:45

9-Сен-11

Еще никто не оставлял запись к записи скачать торрент На районе . Будь первым!

!Обратная связь